<svg xmlns="http://www.w3.org/2000/svg"><defs><font id="FontAwesome5Free-Solid" horiz-adv-x="512"><font-face font-family="Font Awesome 5 Free Solid" font-weight="900" units-per-em="512" panose-1="2 0 5 3 0 0 0 0 0 0" ascent="448" descent="-64" bbox="-1.00195 -64.9795 640.104 448.576" underline-thickness="25" underline-position="-50" unicode-range="U+0020-F8FF"/><glyph glyph-name="faucet" unicode="" d="M352 192c88.307 0 160-71.693 160-160 0-17.661-14.339-32-32-32h-64c-17.661 0-32 14.339-32 32s-14.339 32-32 32h-12.79C318.62 26.27 275 0 224 0s-94.62 26.27-115.21 64H16C7.169 64 0 71.169 0 80v96c0 8.831 7.169 16 16 16h118.61c15.71 13.4 35.46 23 57.39 28v47.56l32 3.38 32-3.38V220c21.93-4.93 41.68-14.56 57.39-28zM81.59 288.09c-9.42-1-17.59 6.81-17.59 16.8v30.22c0 9.99 8.17 17.8 17.59 16.81L192 340.26V368c0 8.831 7.169 16 16 16h32c8.83 0 16-7.169 16-16v-27.74l110.41 11.66c9.42.99 17.59-6.81 17.59-16.81v-30.22c0-9.99-8.17-17.8-17.59-16.8l-142.41 15z"/><glyph glyph-name="trailer" unicode="" horiz-adv-x="640" d="M624 128c8.831 0 16-7.169 16-16V80c0-8.831-7.169-16-16-16H286.39c-7.83 54.21-54 96-110.39 96S73.44 118.21 65.61 64H16C7.169 64 0 71.169 0 80v288c0 8.831 7.169 16 16 16h512c8.83 0 16-7.169 16-16V128zM96 204.32V312c0 4.415-3.585 8-8 8H72c-4.415 0-8-3.585-8-8V183.61a176 176 0 0 0 32 20.71m96 18.54V312c0 4.415-3.585 8-8 8h-16c-4.415 0-8-3.585-8-8v-89.14c5.31.49 10.57 1.14 16 1.14s10.69-.65 16-1.14m96-39.25V312c0 4.415-3.585 8-8 8h-16c-4.415 0-8-3.585-8-8V204.32a176 176 0 0 0 32-20.71M384 128v184c0 4.415-3.585 8-8 8h-16c-4.415 0-8-3.585-8-8V128zm96 0v184c0 4.415-3.585 8-8 8h-16c-4.415 0-8-3.585-8-8V128zm-304 0c44.153 0 80-35.847 80-80s-35.847-80-80-80S96 3.847 96 48s35.847 80 80 80m0-112c17.661 0 32 14.339 32 32s-14.339 32-32 32-32-14.339-32-32 14.339-32 32-32"/><glyph glyph-name="bacteria" unicode="" horiz-adv-x="640" d="M272.35 221.6a18.1 18.1 0 0 0-7.176-1.48h-.034c-.003 0 .002-.014-.002-.014-7.27 0-13.532 4.354-16.317 10.595l-3.92 8.85c-1.15-.73-2.35-1.38-3.47-2.15a119 119 0 0 1-9.94-7.82 121 121 0 0 1-11.65-11.4 119 119 0 0 1-7.87-9.411c-.701-.97-1.23-2.05-1.9-3.05l8.8-4.11a17.7 17.7 0 0 0 10.152-16.035c0-9.792-7.95-17.744-17.743-17.744-2.704 0-5.266.607-7.56 1.689l-9 4.22a120 120 0 0 1-3.87-15.53 83.7 83.7 0 0 0-12.08-31.05l9.14-9.37a17.73 17.73 0 0 0 4.992-12.354c0-9.809-7.964-17.772-17.773-17.772a17.72 17.72 0 0 0-12.78 5.426l-8.589 8.8a83.3 83.3 0 0 0-45.65-13.88c-1.03 0-2.1.26-3.1.26l-2.87-11c-2.08-7.527-8.98-13.073-17.165-13.073-9.83 0-17.81 7.98-17.81 17.81 0 1.44.172 2.84.495 4.184l2.88 11.06a83.36 83.36 0 0 0-36.39 35.429l-11.27-3.33a17.7 17.7 0 0 0-5.063-.741c-9.79 0-17.739 7.948-17.739 17.738 0 8.03 5.347 14.821 12.672 17.003l11.58 3.43a80 80 0 0 0-.214 5.858c0 4.472.353 8.861 1.035 13.143 1.73 10.38 4.73 20.22 7.52 30.22l-10.35 3.54c-6.949 2.402-11.935 8.994-11.935 16.754 0 9.787 7.946 17.734 17.733 17.734a17.7 17.7 0 0 0 5.791-.97l10.48-3.589a287.3 287.3 0 0 0 23 43.91l-8.88 6.47a17.63 17.63 0 0 0-7.302 14.326c0 3.906 1.272 7.519 3.422 10.444a17.81 17.81 0 0 0 14.398 7.275c3.92 0 7.547-1.268 10.492-3.414l8.82-6.421a284.5 284.5 0 0 0 34.95 35.33l-6.45 8.61a17.65 17.65 0 0 0-3.562 10.619c0 5.826 2.822 10.998 7.173 14.221a17.85 17.85 0 0 0 10.644 3.53c5.838 0 11.027-2.8 14.295-7.13l6.32-8.43a287 287 0 0 0 43.94 23.57l-3.49 9.8a17.8 17.8 0 0 0-1.027 5.951c0 9.825 7.977 17.802 17.802 17.802 7.743 0 14.338-4.954 16.785-11.862l3.38-9.46c10.9 3.17 21.73 6.39 33.11 8.22a82 82 0 0 0 13.754 1.152q1.5 0 2.987-.053l2.819 10.78c1.986 7.665 8.951 13.346 17.233 13.346 9.827 0 17.805-7.977 17.805-17.804 0-1.543-.197-3.043-.567-4.471l-2.84-10.85a83.85 83.85 0 0 0 36.38-35.57l11.34 3.36c1.608.48 3.31.744 5.073.744 9.792 0 17.741-7.95 17.741-17.74 0-8.03-5.344-14.82-12.665-17.005l-11.85-3.51c.12-1.822.126-3.68.126-5.532 0-15.586-4.3-30.176-11.776-42.647l9.72-8.761a17.7 17.7 0 0 0 5.798-13.133c0-9.804-7.96-17.764-17.764-17.764A17.7 17.7 0 0 0 333.57 262l-10 9a83.6 83.6 0 0 0-33.75-13.84 122 122 0 0 1-12.36-3.08l4-9.08a17.7 17.7 0 0 0 1.529-7.16c0-7.262-4.38-13.508-10.64-16.24zM128 192c17.661 0 32 14.339 32 32s-14.339 32-32 32-32-14.339-32-32 14.339-32 32-32m80 96c8.831 0 16 7.169 16 16s-7.169 16-16 16-16-7.169-16-16 7.169-16 16-16m431.26-45.3c.47-1.593.725-3.273.725-5.018 0-8.045-5.38-14.843-12.735-16.992l-11.58-3.43a80 80 0 0 0 .217-5.887c0-4.479-.355-8.875-1.037-13.163-1.73-10.37-4.73-20.21-7.52-30.21l10.34-3.53c6.948-2.403 11.935-8.995 11.935-16.755 0-9.788-7.947-17.734-17.735-17.734a17.7 17.7 0 0 0-5.79.969l-10.48 3.59a288 288 0 0 0-23-43.92l8.88-6.46a17.69 17.69 0 0 0 7.648-14.603c0-9.801-7.958-17.76-17.76-17.76-4.101 0-7.88 1.394-10.887 3.733l-8.82 6.42a285.4 285.4 0 0 0-34.951-35.34l6.45-8.61a17.62 17.62 0 0 0 3.592-10.65c0-5.84-2.84-11.022-7.212-14.24a17.84 17.84 0 0 0-10.642-3.534c-5.836 0-11.024 2.803-14.288 7.134l-6.32 8.43a288 288 0 0 0-43.94-23.58l3.49-9.79a17.8 17.8 0 0 0 1.027-5.95c0-9.826-7.976-17.803-17.802-17.803-7.743 0-14.337 4.954-16.785 11.863l-3.38 9.46c-10.86-3.17-21.73-6.35-33.1-8.24a82.3 82.3 0 0 0-16.74-1.1l-2.82-10.78c-1.986-7.666-8.95-13.346-17.233-13.346-9.826 0-17.804 7.977-17.804 17.804 0 1.544.196 3.042.567 4.472L326.61-31A83.84 83.84 0 0 0 290.2 4.58l-11.34-3.36a17.7 17.7 0 0 0-5.079-.747c-9.792 0-17.742 7.95-17.742 17.744 0 8.027 5.342 14.816 12.661 17.003l11.86 3.51c-.12 1.823-.125 3.679-.125 5.532 0 15.586 4.298 30.176 11.775 42.648l-9.72 8.75a17.7 17.7 0 0 0-6.003 13.32c0 9.807 7.963 17.77 17.77 17.77a17.7 17.7 0 0 0 12.153-4.81l10-9a83.6 83.6 0 0 0 33.77 13.9c4.17.804 8.357 1.851 12.36 3.08l-4 9.08a17.7 17.7 0 0 0-1.52 7.138c0 7.254 4.37 13.495 10.62 16.232a18.1 18.1 0 0 0 7.18 1.5c.004 0-.002.014.002.014 7.27 0 13.532-4.354 16.318-10.594l3.92-8.85c1.15.73 2.35 1.38 3.47 2.15 3.49 2.45 6.792 5.036 10 7.83a118 118 0 0 1 11.57 11.33 117 117 0 0 1 7.94 9.47c.69.97 1.22 2.05 1.89 3.05l-8.8 4.11a17.7 17.7 0 0 0-10.152 16.035c0 9.793 7.95 17.743 17.743 17.743a17.7 17.7 0 0 0 7.56-1.689l9-4.22a120 120 0 0 1 3.87 15.52 83.6 83.6 0 0 0 12.08 31.06l-9.141 9.37a17.73 17.73 0 0 0-4.991 12.354c0 9.81 7.964 17.773 17.772 17.773 5.015 0 9.547-2.081 12.78-5.426l8.59-8.81a83.24 83.24 0 0 0 45.649 13.89c1.03 0 2.1-.26 3.1-.26l2.87 11c2.101 7.495 8.985 13.013 17.148 13.013 9.83 0 17.81-7.98 17.81-17.81 0-1.416-.166-2.792-.478-4.114l-2.88-11.06a83.46 83.46 0 0 0 36.39-35.43l11.27 3.331c1.598.479 3.29.74 5.042.74h.038l.014-.002c8.046 0 14.85-5.352 17.046-12.688M416 32c17.661 0 32 14.339 32 32s-14.339 32-32 32-32-14.339-32-32 14.339-32 32-32"/><glyph glyph-name="bacterium" unicode="" d="M511 345.07c.635-2.134.977-4.388.977-6.727 0-10.727-7.171-19.794-16.977-22.664L479.21 311c.156-2.408.163-4.86.163-7.308 0-20.817-5.752-40.303-15.753-56.951l12.94-11.67a23.62 23.62 0 0 0 8.44-18.136c0-13.074-10.615-23.69-23.69-23.69a23.6 23.6 0 0 0-16.63 6.826l-13.33 12a111.4 111.4 0 0 0-45-18.54 160 160 0 0 1-16.49-4.1l5.36-12.11a23.8 23.8 0 0 0 2.012-9.559c0-13.103-10.637-23.74-23.74-23.74-9.718 0-18.08 5.85-21.752 14.219l-5.23 11.8c-1.53-.98-3.13-1.87-4.63-2.87a161 161 0 0 1-13.23-10.4 158 158 0 0 1-15.59-15.28A157 157 0 0 1 282.6 129c-.93-1.29-1.63-2.74-2.52-4.06l11.72-5.49c8.208-3.715 13.881-11.953 13.881-21.542 0-13.058-10.601-23.66-23.66-23.66-3.735 0-7.268.868-10.41 2.412l-12 5.64a160 160 0 0 1-5.161-20.71 111.5 111.5 0 0 0-16.11-41.4l12.19-12.5a23.64 23.64 0 0 0 6.321-16.122c0-13.08-10.62-23.7-23.7-23.7-6.513 0-12.416 2.634-16.701 6.891L205-13.5a111.1 111.1 0 0 0-60.87-18.519c-1.36 0-2.76.3-4.13.35l-3.81-14.63C133.516-56.477 124.25-64 113.24-64h-.05a24.6 24.6 0 0 0-6 .75c-10.199 2.63-17.75 11.885-17.75 22.9 0 2.048.26 4.035.75 5.93l3.85 14.75a111.3 111.3 0 0 0-48.53 47.24l-15-4.44a23.6 23.6 0 0 0-6.753-.99C10.709 22.14.116 32.733.116 45.78.116 56.48 7.24 65.53 17 68.44L32.44 73c-.2 2.72-.3 5.257-.3 8.029 0 5.893.457 11.682 1.34 17.33a388 388 0 0 0 9.3 40.53l-13 4.48c-9.477 3.085-16.321 11.982-16.321 22.481 0 13.053 10.596 23.65 23.649 23.65 2.86 0 5.603-.508 8.142-1.44l12.93-4.43a384.4 384.4 0 0 0 30.92 58.75l-11.09 8.06a23.58 23.58 0 0 0-10.235 19.495c0 13.07 10.61 23.68 23.68 23.68 5.485 0 10.538-1.87 14.554-5.005l11-8a383.5 383.5 0 0 0 46.7 47.44l-8 10.63c-2.953 3.937-4.737 8.836-4.737 14.133 0 7.767 3.765 14.661 9.568 18.956 3.965 2.939 8.88 4.708 14.188 4.708 7.781 0 14.698-3.734 19.052-9.508l8-10.63a384 384 0 0 0 58.69 31.83l-4.3 12.05a23.8 23.8 0 0 0-1.248 7.582c0 13.102 10.637 23.74 23.74 23.74 10.195 0 18.897-6.44 22.258-15.471l4.3-12a390 390 0 0 0 44.33 10.41 110.6 110.6 0 0 0 18.42 1.537q1.963 0 3.91-.067l3.76 14.37c2.649 10.23 11.944 17.813 22.997 17.813 13.113 0 23.76-10.647 23.76-23.76 0-2.059-.263-4.057-.758-5.963l-3.79-14.47a111.64 111.64 0 0 0 48.5-47.42l15.12 4.48c2.149.64 4.418.985 6.773.985 10.734 0 19.816-7.134 22.758-16.915M160 80c26.492 0 48 21.508 48 48s-21.508 48-48 48-48-21.508-48-48 21.508-48 48-48m80 136c13.246 0 24 10.754 24 24s-10.754 24-24 24-24-10.754-24-24 10.754-24 24-24"/><glyph glyph-name="box-tissue" unicode="" d="M383.88 160.18h-256l-64 288h141.4c30.991-.002 57.302-20.116 66.6-48 9.295-27.882 35.601-47.996 66.59-48h109.41zm-384-192v64h512v-64c0-17.661-14.339-32-32-32h-448c-17.661 0-32 14.339-32 32m480 256c17.656-.005 31.99-14.342 31.99-32v-128h-512v128c0 17.661 14.34 32 32 32h49l14.22-64H79.88c-8.83 0-16-7.169-16-16s7.17-16 16-16h352c8.831 0 16 7.17 16 16s-7.169 16-16 16h-14.27l21.33 64z"/><glyph glyph-name="hand-holding-medical" unicode="" horiz-adv-x="576" d="M159.88 272.18c-8.83 0-16 7.17-16 16v64c0 8.831 7.17 16 16 16h64v64c0 8.831 7.17 16 16 16h64c8.831 0 16-7.169 16-16v-64h64c8.831 0 16-7.169 16-16v-64c0-8.83-7.169-16-16-16h-64v-64c0-8.83-7.169-16-16-16h-64c-8.83 0-16 7.17-16 16v64zm408.19-160.31c4.871-6.627 7.805-14.823 7.805-23.67 0-13.2-6.406-24.913-16.276-32.2L424.57-43.57c-17.278-12.662-38.67-20.215-61.7-20.27h-347c-8.803.06-15.94 7.197-16 16v96c.06 8.803 7.197 15.94 16 16h55.36l46.5 37.74c20.225 16.387 46.062 26.25 74.095 26.25H351.85c17.694 0 32.065-14.336 32.065-32.03 0-1.823-.152-3.61-.445-5.35-2.62-15.74-17.37-26.61-33.37-26.61h-78.24c-8.83 0-16-7.17-16-16s7.17-16 16-16h120.61l119.67 88.18c6.632 4.91 14.85 7.87 23.729 7.87 13.213 0 24.935-6.436 32.201-16.34"/><glyph glyph-name="hand-sparkles" unicode="" horiz-adv-x="640" d="m106.66 277.36-20.74-49.62a6.643 6.643 0 0 0-11.92 0L53.34 277.4h-.07L3.68 298A7.32 7.32 0 0 0 0 304a7.29 7.29 0 0 0 3.7 6l49.63 20.69h.05l20.7 49.63a6.653 6.653 0 0 0 11.92 0l20.66-49.64h.07l49.57-20.67a7.29 7.29 0 0 0 3.68-6 7.32 7.32 0 0 0-3.68-6l-49.55-20.65zM471.38-19.41l37.49-15.63.07-.17C501.35-52.27 484.94-64 465.7-64H268.09c-15.948.027-30.062 7.795-38.79 19.79L103.7 128.4a40.07 40.07 0 0 0-7.68 23.58c0 22.085 17.93 40.016 40.014 40.016 13.303 0 25.099-6.506 32.376-16.506L192 143v241c0 17.66 14.339 32 32 32s32-14.34 32-32V232c0-4.415 3.585-8 8-8h16c4.415 0 8 3.585 8 8v184c0 17.66 14.339 32 32 32s32-14.34 32-32V232c0-4.415 3.585-8 8-8h16c4.415 0 8 3.585 8 8v152c0 17.66 14.339 32 32 32s32-14.34 32-32V232c0-4.415 3.585-8 8-8h16c4.415 0 8 3.585 8 8v72c0 17.66 14.339 32 32 32s32-14.34 32-32V127.97c-.02-1.31-.27-2.67-.27-4-7.77-3.71-14.5-9.6-18.35-17.34l-.47-.95-.41-1-15.63-37.48-37.49-15.63-1-.43-1-.49C456.708 44.298 448 31.231 448 16.102s8.707-28.24 21.379-34.592l1-.5zM349.79 108.48a3.994 3.994 0 0 1 0 7.159L320 128.06l-12.43 29.78a3.996 3.996 0 0 1-7.15 0L288 128.06l-29.79-12.42a3.994 3.994 0 0 1 0-7.159L288 96.07l12.43-29.78a3.996 3.996 0 0 1 7.15 0L320 96.07zM640 16.09l-.07-.07a7.29 7.29 0 0 0-3.68-5.95L586.7-10.59h-.09l-20.69-49.62a6.643 6.643 0 0 0-11.92 0l-20.66 49.59h-.07L483.7 10.05a7.29 7.29 0 0 0-3.68 5.95 7.28 7.28 0 0 0 3.68 6l49.63 20.74h.05l20.7 49.63a6.653 6.653 0 0 0 11.92 0l20.68-49.61h.07l49.57-20.67a7.28 7.28 0 0 0 3.68-6"/><glyph glyph-name="hands-wash" unicode="" horiz-adv-x="576" d="M496 224c-26.492 0-48 21.508-48 48s21.508 48 48 48 48-21.508 48-48-21.508-48-48-48m-184.53 45.55-16.08-4.97 20.9 66.17c3.5 11.07 14.18 18.86 25.71 17.51 12.051-1.272 21.473-11.482 21.473-23.868 0-2.534-.394-4.978-1.123-7.272L347 268.51a56 56 0 0 1-19 3.49c-.01 0-.018-.01-.03-.01a56.7 56.7 0 0 1-16.5-2.44M93.65 61.67C57.218 82.786 32.663 121.913 32 166.86v112.729c.18 13.32 11.67 23.91 24.9 23.86 13.181-.077 23.86-10.799 23.86-23.997v-.153l2.06-50.05 60 189.85c3.5 11.07 14.18 18.9 25.71 17.46 12.037-1.286 21.445-11.488 21.445-23.865a24 24 0 0 0-1.115-7.244l-38.56-122a7.997 7.997 0 0 1 7.629-10.412 8.01 8.01 0 0 1 7.63 5.591l47.931 151.71c3.51 11.06 14.18 18.851 25.71 17.51 12.037-1.286 21.445-11.488 21.445-23.865 0-2.524-.39-4.958-1.115-7.244l-43.37-137.79a8 8 0 0 1-.375-2.416 8.007 8.007 0 0 1 8.003-8.003 8.01 8.01 0 0 1 7.632 5.589l33.45 106.42c3.5 11.07 14.19 18.86 25.72 17.52 12.037-1.287 21.444-11.489 21.444-23.866 0-2.524-.39-4.958-1.114-7.244l-34.16-108.12-73.7-22.76C140.93 215.542 96.055 157.03 96 88.07V62.38c-.81-.17-1.55-.52-2.35-.71M519.1 112c11.61 0 22.25-7.84 24.44-19.24.313-1.544.478-3.124.478-4.76 0-13.246-10.755-24-24-24H360c-4.415 0-8-3.585-8-8s3.585-8 8-8h127.1c11.61 0 22.25-7.84 24.44-19.24.313-1.544.478-3.124.478-4.76 0-13.246-10.755-24-24-24H360.001c-4.415 0-8-3.585-8-8s3.585-8 8-8h95.1c11.61 0 22.25-7.84 24.44-19.24.312-1.544.477-3.124.477-4.76 0-13.246-10.755-24-24-24H248.001a118.8 118.8 0 0 0-62 17.72c3.862 9.363 5.966 19.67 5.966 30.42 0 38.619-27.499 70.865-63.966 78.21V88c0 54.87 35.732 101.431 85.19 117.69l107.72 33.25a24 24 0 0 0 7.09 1.075c13.252 0 24.01-10.759 24.01-24.01 0-10.785-7.124-19.917-16.92-22.946L288 176h199.1c11.61 0 22.25-7.84 24.44-19.24.313-1.543.478-3.124.478-4.76 0-13.245-10.755-24-24-24H360c-4.415 0-8-3.584-8-8s3.585-8 8-8zM416 384c-17.661 0-32 14.339-32 32s14.339 32 32 32 32-14.339 32-32-14.339-32-32-32M112 32c26.492 0 48-21.508 48-48s-21.508-48-48-48-48 21.508-48 48 21.508 48 48 48"/><glyph glyph-name="handshake-alt-slash" unicode="" horiz-adv-x="640" d="m358.59 252.4 26.11 23.89a15.95 15.95 0 0 1 5.193 11.803c0 8.832-7.171 16.003-16.004 16.003-4.16 0-7.951-1.59-10.799-4.196l-27-24.7-32.69-29.92L633.83-10.1a15.97 15.97 0 0 0 6.171-12.643c0-3.694-1.254-7.098-3.36-9.807L617-57.82a15.97 15.97 0 0 0-12.647-6.177 15.93 15.93 0 0 0-9.813 3.367L6.19 394.09a15.97 15.97 0 0 0-6.172 12.642c0 3.694 1.255 7.098 3.361 9.808L23 441.81a15.97 15.97 0 0 0 12.65 6.18c3.7 0 7.109-1.258 9.82-3.37l116.89-90.33 20.34 20.3c5.78 5.8 13.777 9.392 22.6 9.41h83.79l-75.6-69.24 25.69-19.85 88.12 80.68a31.9 31.9 0 0 0 21.61 8.41h85.89c8.828-.015 16.827-3.608 22.61-9.41L512 320h112c8.8 0 15.95-7.121 16-15.91v-191.8c-.027-8.819-7.181-15.973-16-16h-97.59a63.42 63.42 0 0 1-22.21 37.91zM16 320h7.56L406 24.41l-8.8-10.82A37.09 37.09 0 0 0 368.336-.122 37 37 0 0 0 344.91 8.2L327 23.7l-.2-.2C315.06 9.065 297.14-.098 277.102-.098c-15.27 0-29.297 5.36-40.304 14.298l-90.5 81.89H16c-8.83 0-16 7.17-16 16V304c.028 8.818 7.182 15.972 16 16"/><glyph glyph-name="handshake-slash" unicode="" horiz-adv-x="640" d="M0 319.79h23.83L96 264V96c0-17.661-14.339-32-32-32H0zM48 127.9c-8.831 0-16-7.17-16-16s7.169-16 16-16 16 7.169 16 16-7.169 16-16 16m80-31.81v143.19L406 24.41l-8.8-10.82A37.09 37.09 0 0 0 368.337-.123 37 37 0 0 0 344.91 8.2L327 23.7l-.2-.2C315.06 9.065 297.14-.098 277.103-.098c-15.27 0-29.296 5.36-40.303 14.298l-90.5 81.89zm416 223.7h96V63.9h-64c-17.661 0-32 14.338-32 32zM592 95.9c8.831 0 16 7.17 16 16s-7.169 16-16 16-16-7.17-16-16 7.169-16 16-16M303.33 245.33 633.83-10.1a15.97 15.97 0 0 0 6.177-12.647 15.93 15.93 0 0 0-3.357-9.803L617-57.82a15.97 15.97 0 0 0-12.65-6.181c-3.7 0-7.109 1.258-9.82 3.37L6.19 394.09a15.97 15.97 0 0 0-6.172 12.643c0 3.695 1.255 7.098 3.362 9.808L23 441.81a15.97 15.97 0 0 0 12.65 6.181c3.7 0 7.109-1.259 9.82-3.371l116.89-90.34 20.34 20.31c5.78 5.8 13.777 9.392 22.6 9.41h83.79l-75.6-69.24 25.64-19.81 88.07 80.64a31.84 31.84 0 0 0 21.595 8.41H434.7c.012 0 .027.005.038.005 8.82 0 16.805-3.603 22.562-9.415L511.91 320V126.5a72.6 72.6 0 0 1-7.91 7.7L358.41 252.4l26.09 23.89a15.94 15.94 0 0 1 4.952 11.578c0 8.83-7.169 16-16 16a15.94 15.94 0 0 1-10.542-3.968z"/><glyph glyph-name="head-side-cough" unicode="" horiz-adv-x="640" d="M616 144c-13.246 0-24 10.754-24 24s10.754 24 24 24 24-10.754 24-24-10.754-24-24-24M552 32c13.246 0 24-10.754 24-24s-10.754-24-24-24-24 10.754-24 24 10.754 24 24 24m-64 56c13.246 0 24-10.754 24-24s-10.754-24-24-24-24 10.754-24 24 10.754 24 24 24M616-16c13.246 0 24-10.754 24-24s-10.754-24-24-24-24 10.754-24 24 10.754 24 24 24m0 104c13.246 0 24-10.754 24-24s-10.754-24-24-24-24 10.754-24 24 10.754 24 24 24m-64 40c13.246 0 24-10.754 24-24s-10.754-24-24-24-24 10.754-24 24 10.754 24 24 24m-74.78 45a32 32 0 0 0 2.76-13c0-17.654-14.328-31.988-31.98-32h-32V96h-96c-17.66 0-32-14.339-32-32s14.34-32 32-32h96c0-35.322-28.677-64-64-64h-64v-32H64v177.12C24.75 148.38 0 199.25 0 256c0 106 86 192 192 192h42.1c70.278-.047 132.342-34.805 170-88.25 24.62-35 52.12-139.63 73.12-186.75M288 224c17.644.038 31.962 14.356 32 32 0 17.661-14.339 32-32 32s-32-14.339-32-32 14.339-32 32-32"/><glyph glyph-name="head-side-cough-slash" unicode="" horiz-adv-x="640" d="M454.11 128.79 633.83-10.1A15.97 15.97 0 0 0 640-22.743c0-3.694-1.254-7.098-3.36-9.807L617-57.82a15.97 15.97 0 0 0-12.65-6.181c-3.7 0-7.109 1.258-9.82 3.37L6.18 394.09a15.97 15.97 0 0 0-6.172 12.643c0 3.695 1.255 7.098 3.362 9.808L23 441.81a15.97 15.97 0 0 0 12.646 6.176 15.93 15.93 0 0 0 9.814-3.366l38.72-29.92c30.604 20.939 67.796 33.3 107.643 33.3H234.1c70.278-.047 132.342-34.805 170-88.25 24.62-35 52.12-139.63 73.12-186.75 8.51-19.21-3.55-40.4-23.11-44.21M313.39 237.55c3.85 5.28 6.61 11.45 6.58 18.45-.033 17.646-14.353 31.967-32 32-9.93 0-18.48-4.86-24.36-12zM616 144c-13.246 0-24 10.754-24 24s10.754 24 24 24 24-10.754 24-24-10.754-24-24-24m-64-64c-13.246 0-24 10.754-24 24s10.754 24 24 24 24-10.754 24-24-10.754-24-24-24M288 64c0-17.661 14.339-32 32-32h96c0-35.322-28.678-64-64-64h-64v-32H64v177.12C24.75 148.38 0 199.25 0 256a190.8 190.8 0 0 0 20.73 86.41L339.54 96H320c-17.66 0-32-14.339-32-32m328 24c13.246 0 24-10.754 24-24s-10.754-24-24-24-24 10.754-24 24 10.754 24 24 24"/><glyph glyph-name="head-side-mask" unicode="" d="M.15 263.58a182 182 0 0 0 3.52 28.17L224 131.49V-64H64v177.12C23 149.94-2.17 203.79.15 263.58M509.22 173a31.3 31.3 0 0 0 2.54-13H239.21L13.25 324.35C42.48 397.43 117 448 200 448h66.11c70.275-.047 132.336-34.805 169.99-88.25 24.62-35 52.12-139.63 73.12-186.75M320 224c17.644.038 31.962 14.356 32 32 0 17.661-14.339 32-32 32s-32-14.339-32-32 14.339-32 32-32m16-144c-8.831 0-16-7.169-16-16s7.169-16 16-16h149.34l-10.67-32H336c-8.83 0-16-7.169-16-16s7.17-16 16-16h128l-1.41-4.24c-8.474-25.42-32.458-43.758-60.71-43.76H256v192h256l-16-48z"/><glyph glyph-name="head-side-virus" unicode="" d="M272 208c8.831 0 16-7.169 16-16s-7.169-16-16-16-16 7.169-16 16 7.169 16 16 16m-64 64c8.831 0 16-7.169 16-16s-7.169-16-16-16-16 7.169-16 16 7.169 16 16 16m301.2-99a32 32 0 0 0 2.759-13c0-17.647-14.317-31.977-31.96-32h-32V64c0-35.322-28.677-64-64-64h-64v-64H64v177.19C24.688 148.224 0 199.204 0 255.953V256c0 106 86 192 192 192h74.09c70.301 0 132.406-34.773 170.04-88.25 24.64-35.02 52.14-139.63 73.07-186.75M368 208c8.831 0 16 7.169 16 16s-7.169 16-16 16h-12.12c-28.51 0-42.79 34.47-22.63 54.63l8.58 8.57a15.96 15.96 0 0 1 4.685 11.318c0 8.83-7.17 16.002-16.002 16.002a15.95 15.95 0 0 1-11.313-4.69l-8.57-8.58c-20.16-20.16-54.63-5.88-54.63 22.63V352c0 8.831-7.169 16-16 16s-16-7.169-16-16v-12.12c0-28.51-34.47-42.79-54.63-22.63l-8.57 8.58a15.96 15.96 0 0 1-11.318 4.685c-8.83 0-16.002-7.17-16.002-16.002 0-4.416 1.793-8.416 4.69-11.313l8.58-8.57c20.16-20.16 5.88-54.63-22.63-54.63H112c-8.831 0-16-7.169-16-16s7.169-16 16-16h12.12c28.51 0 42.79-34.47 22.63-54.63l-8.58-8.57a15.96 15.96 0 0 1-4.685-11.318c0-8.83 7.17-16.002 16.002-16.002 4.416 0 8.416 1.793 11.313 4.69l8.57 8.58c20.16 20.16 54.63 5.88 54.63-22.63V96c0-8.831 7.169-16 16-16s16 7.169 16 16v12.12c0 28.51 34.47 42.79 54.63 22.63l8.57-8.58a15.96 15.96 0 0 1 11.318-4.685c8.83 0 16.002 7.17 16.002 16.002 0 4.416-1.793 8.416-4.69 11.313l-8.58 8.57c-20.16 20.16-5.88 54.63 22.63 54.63z"/><glyph glyph-name="house-user" unicode="" horiz-adv-x="576" d="M570.69 211.73a21 21 0 0 0 5.31-11.92 21.7 21.7 0 0 0-4.09-10.69l-21.41-23.81a20.9 20.9 0 0 0-11.87-5.31 22 22 0 0 0-10.72 4.12l-15.91 14V-32c0-17.661-14.34-32-32-32H96.09c-17.662 0-32 14.339-32 32v210.11l-15.9-14A21.7 21.7 0 0 0 37.5 160a21.15 21.15 0 0 0-12 5.3L4.09 189.09A18.65 18.65 0 0 0 0 199.8a18.25 18.25 0 0 0 5.26 11.9l256 226c6.28 5.689 18.21 10.3 26.74 10.3s20.5-4.611 26.78-10.3L416 348.33V400c0 8.83 7.169 16 16 16h64c8.831 0 16-7.17 16-16V263.56zM288 272c-35.322 0-64-28.678-64-64s28.678-64 64-64 64 28.678 64 64-28.678 64-64 64M400 0c8.831 0 16 7.169 16 16 0 52.983-43.017 96-96 96h-64c-52.983 0-96-43.017-96-96 0-8.831 7.169-16 16-16z"/><glyph glyph-name="laptop-house" unicode="" horiz-adv-x="640" d="M272 160V32H96c-17.661 0-32 14.339-32 32v164.12L42.34 209a16.5 16.5 0 0 0-9.34-3.48 16.2 16.2 0 0 0-10.66 4.78L3.55 231.61A16.4 16.4 0 0 0 0 241a16.14 16.14 0 0 0 4.78 10.58l211.8 187.5c5.54 4.92 16.07 8.92 23.47 8.92s17.95-4 23.45-8.92L352 360.7V400c0 8.83 7.17 16 16 16h32c8.831 0 16-7.17 16-16v-96l59.25-52.39A16.3 16.3 0 0 0 480 241a16.5 16.5 0 0 0-3.61-9.47l-6.65-7.53H332.8c-17.8 0-33.69-8.24-44.8-21.12V240c0 8.83-7.168 16-16 16h-64c-8.83 0-16-7.17-16-16v-64c0-8.831 7.17-16 16-16zM629.33 0C635.219 0 640-4.781 640-10.67v-10.66c-.082-23.488-19.12-42.55-42.6-42.67H298.6c-23.48.12-42.518 19.182-42.6 42.67v10.66C256-4.78 260.78 0 266.67 0H304v160c0 17.67 12.89 32 28.8 32h230.4c15.91 0 28.8-14.33 28.8-32V0zM544 0v144H352V0z"/><glyph glyph-name="lungs-virus" unicode="" horiz-adv-x="640" d="M344 297.32c-6.995 4.22-15.291 6.65-24.05 6.65s-16.955-2.43-23.95-6.65V432c0 8.831 7.169 16 16 16h16c8.831 0 16-7.169 16-16zM195.54 3.54c8.448-8.68 20.218-14.064 33.275-14.064 2.88 0 5.7.261 8.435.764a98.5 98.5 0 0 0-52.5-34.75l-59.5-15.87C62.5-77.26 0-33 0 28.25c0 .082.013.125.013.207 0 10.172 1.345 20.032 3.867 29.413 22.036 82.46 57.037 160.927 102 231C128 323.5 142 352 186 352c38.62 0 70-29.38 70-65.75v-27.68a47.96 47.96 0 0 1-26.677 8.085c-26.492 0-48-21.509-48-48 0-13.323 5.44-25.385 14.217-34.085l8.58-8.57H192c-26.492 0-48-21.508-48-48s21.508-48 48-48h12.12l-8.58-8.58c-8.674-8.695-14.04-20.707-14.04-33.947s5.366-25.237 14.04-33.933m226.29 22.63c-2.896-2.897-6.901-4.69-11.317-4.69s-8.416 1.793-11.313 4.69l-8.57 8.57C370.47 54.9 336 40.62 336 12.12V0c0-8.831-7.17-16-16-16s-16 7.169-16 16v12.12c0 28.5-34.47 42.78-54.63 22.62l-8.57-8.57a15.96 15.96 0 0 0-11.484-4.855c-8.83 0-16 7.17-16 16 0 4.5 1.86 8.567 4.854 11.475l8.58 8.58c20.16 20.16 5.88 54.63-22.63 54.63H192c-8.831 0-16 7.169-16 16s7.169 16 16 16h12.12c28.51 0 42.79 34.47 22.63 54.62l-8.58 8.58a15.96 15.96 0 0 0-4.685 11.318c0 8.83 7.17 16.002 16.002 16.002 4.416 0 8.416-1.793 11.313-4.69l8.57-8.58c20.16-20.16 54.63-5.88 54.63 22.63V256c0 8.831 7.169 16 16 16s16-7.169 16-16v-12.12c0-28.51 34.47-42.79 54.63-22.63l8.57 8.58a15.96 15.96 0 0 0 11.318 4.685c8.83 0 16.002-7.17 16.002-16.002 0-4.416-1.793-8.416-4.69-11.313l-8.58-8.58c-20.16-20.15-5.88-54.62 22.63-54.62H448c8.831 0 16-7.169 16-16s-7.169-16-16-16h-12.12c-28.51 0-42.79-34.47-22.63-54.63l8.58-8.58a15.96 15.96 0 0 0 4.685-11.312c0-4.414-1.791-8.413-4.685-11.308M288 144c8.831 0 16 7.169 16 16s-7.169 16-16 16-16-7.169-16-16 7.169-16 16-16m64-64c8.831 0 16 7.169 16 16s-7.169 16-16 16-16-7.169-16-16 7.169-16 16-16m284.12-22.13A113 113 0 0 0 640 28.496v-.246C640-33 577.5-77.26 514.75-60.38l-59.5 15.87a98.5 98.5 0 0 0-52.5 34.75 47.5 47.5 0 0 1 8.515-.762c26.326 0 47.7 21.374 47.7 47.7 0 13.43-5.562 25.57-14.505 34.242L435.88 80H448c26.492 0 48 21.508 48 48s-21.508 48-48 48h-12.12l8.58 8.53c8.777 8.7 14.16 20.74 14.16 34.062 0 26.492-21.508 48-48 48-9.844 0-19-2.97-26.62-8.062v27.72c0 36.37 31.38 65.75 70 65.75 44 0 58-28.5 80.12-63.13 44.963-70.073 79.964-148.54 102-231"/><glyph glyph-name="people-arrows" unicode="" horiz-adv-x="576" d="M96 320c-35.322 0-64 28.678-64 64s28.678 64 64 64 64-28.678 64-64-28.678-64-64-64m0-176.08c0-.04-.012-.078-.012-.12 0-12.532 5.242-23.85 13.652-31.88L160 64.39V-32c0-17.661-14.339-32-32-32H64c-17.66 0-32 14.34-32 32V96c-17.66 0-32 14.34-32 32v96c0 35.322 28.678 64 64 64h64c26.972-.025 50.03-16.76 59.38-40.43-1.84-1.26-3.96-2.02-5.61-3.57l-72.13-68.08C101.23 167.886 96 156.564 96 144.027zM480 320c-35.322 0-64 28.678-64 64s28.678 64 64 64 64-28.678 64-64-28.678-64-64-64m32-32c35.322 0 64-28.678 64-64v-96c0-17.661-14.339-32-32-32V-32c0-17.661-14.339-32-32-32h-64c-17.661 0-32 14.339-32 32v96.38l50.36 47.55c8.409 8.076 13.645 19.433 13.645 32.002 0 12.567-5.236 23.922-13.645 31.998l-72.12 68.06c-1.62 1.59-3.78 2.32-5.62 3.59 9.354 23.666 32.41 40.397 59.38 40.42zm-67.6-135.34a12.37 12.37 0 0 0 3.6-8.737 12.36 12.36 0 0 0-3.6-8.733l-72.12-68.07a11.97 11.97 0 0 0-8.28-3.315c-6.623 0-12 5.376-12 12V112H224V75.86l-.003-.054c0-6.624-5.377-12-12-12a11.96 11.96 0 0 0-8.278 3.314l-72.12 68.07a12.37 12.37 0 0 0-3.6 8.737c0 3.405 1.376 6.49 3.6 8.733l72.12 68.07a11.97 11.97 0 0 0 8.28 3.315c6.624 0 12-5.377 12-12V176h128v36l.004.034c0 6.623 5.377 12 12 12 3.208 0 6.123-1.26 8.277-3.314z"/><glyph glyph-name="plane-slash" unicode="" horiz-adv-x="640" d="M32.48 300.12a15.6 15.6 0 0 0-.386 3.495c0 2.945.825 5.7 2.256 8.045L359.19 60.599l-66.6-116.54c-2.757-4.822-7.941-8.06-13.89-8.06h-65.5c-8.816.017-15.967 7.177-15.967 15.998 0 1.53.215 3.01.617 4.413l49 171.59H144l-43.2-57.59A15.96 15.96 0 0 0 88 64H48c-8.828.003-15.994 7.164-15.994 15.993 0 1.337.165 2.636.474 3.877L64 192zM633.82-10.09a15.97 15.97 0 0 0 6.182-12.651 15.92 15.92 0 0 0-3.363-9.809L617-57.81a15.97 15.97 0 0 0-12.65-6.182 15.93 15.93 0 0 0-9.81 3.362L6.18 394.09a15.97 15.97 0 0 0-6.175 12.647c0 3.697 1.257 7.103 3.366 9.813L23 441.81a15.97 15.97 0 0 0 12.647 6.177c3.697 0 7.102-1.257 9.813-3.367l189.3-146.3-36.94 129.29a16 16 0 0 0-.614 4.39c0 8.83 7.166 15.997 15.994 16h65.51c5.13 0 11.35-3.61 13.9-8.06L397.7 256H512c35.34 0 96-28.66 96-64s-60.66-64-96-64h-56.86z"/><glyph glyph-name="pump-medical" unicode="" horiz-adv-x="384" d="M235.51 288.18c33.337-.002 60.756-25.612 63.73-58.18L319.61 6c.176-1.93.263-3.823.263-5.8 0-35.32-28.674-63.996-63.993-64h-192C28.558-63.8-.126-35.184-.126.138Q-.125 3.104.14 6l20.37 224c2.975 32.568 30.394 58.178 63.73 58.18zm4.37-173.33v26.66c0 7.363-5.978 13.34-13.34 13.34h-40v40c0 7.357-5.972 13.33-13.33 13.33h-26.67c-7.357 0-13.33-5.973-13.33-13.33v-40h-40c-7.357 0-13.33-5.973-13.33-13.33v-26.67c0-7.358 5.973-13.334 13.33-13.34h40v-40c0-7.356 5.973-13.33 13.33-13.33h26.67c7.358 0 13.33 5.974 13.33 13.33v40h40c7.36.006 13.334 5.98 13.34 13.34m139.31 239.27c2.896-2.896 4.69-6.901 4.69-11.317s-1.794-8.416-4.69-11.313l-22.62-22.62c-2.897-2.897-6.901-4.69-11.317-4.69s-8.417 1.793-11.313 4.69l-43.31 43.31h-66.75v-32h-128v96c0 17.66 14.338 32 32 32h64c17.66 0 32-14.34 32-32h66.75c17.655-.002 33.658-7.16 45.24-18.74z"/><glyph glyph-name="pump-soap" unicode="" horiz-adv-x="384" d="M235.63 288c.004 0 .01-.063.015-.063 33.35 0 60.775-25.563 63.735-58.147l20.36-224A63 63 0 0 0 320 0c0-35.322-28.677-64-64-64H64C28.68-63.996.006-35.383.006-.064q0 2.962.264 5.854l20.36 224C23.59 262.374 51.02 288 84.37 288zM160 32c33.12 0 60 26.33 60 58.73 0 25-35.67 75.47-52 97.27a9.97 9.97 0 0 1-8.003 4.019 9.99 9.99 0 0 1-7.997-4c-16.3-21.8-52-72.269-52-97.269C100 58.33 126.88 32 160 32m219.31 321.94c2.897-2.896 4.69-6.901 4.69-11.317s-1.793-8.417-4.69-11.314l-22.62-22.619c-2.896-2.897-6.9-4.69-11.316-4.69s-8.417 1.793-11.314 4.69L290.75 352H224v-32H96v96c0 17.66 14.34 32 32 32h64c17.662 0 32-14.34 32-32h66.75c17.659 0 33.666-7.159 45.25-18.74z"/><glyph glyph-name="shield-virus" unicode="" d="M224 256c8.831 0 16-7.169 16-16s-7.169-16-16-16-16 7.169-16 16 7.169 16 16 16m242.5 108.32c17.336-7.241 29.5-24.343 29.5-44.291v-.03C496 98.7 360.09-24.61 274.41-60.32c-5.676-2.358-11.962-3.66-18.487-3.66a47.9 47.9 0 0 0-18.423 3.66C130.5-15.72 16 121.5 16 320c0 .017-.031.011-.031.027 0 19.97 12.24 37.106 29.62 44.304l192 80a57.5 57.5 0 0 0 18.46 3.67 57.5 57.5 0 0 0 18.45-3.68zM384 192c8.831 0 16 7.169 16 16s-7.169 16-16 16h-12.12c-28.51 0-42.79 34.47-22.63 54.63l8.58 8.57a15.96 15.96 0 0 1 4.685 11.318c0 8.83-7.17 16.002-16.002 16.002a15.95 15.95 0 0 1-11.313-4.69l-8.57-8.58c-20.16-20.16-54.63-5.88-54.63 22.63V336c0 8.831-7.169 16-16 16s-16-7.169-16-16v-12.12c0-28.51-34.47-42.79-54.63-22.63l-8.57 8.58a15.96 15.96 0 0 1-11.318 4.685c-8.83 0-16.002-7.17-16.002-16.002 0-4.416 1.793-8.416 4.69-11.313l8.58-8.57c20.16-20.16 5.88-54.63-22.63-54.63H128c-8.831 0-16-7.169-16-16s7.169-16 16-16h12.12c28.51 0 42.79-34.47 22.63-54.63l-8.58-8.57a15.96 15.96 0 0 1-4.685-11.318c0-8.83 7.17-16.002 16.002-16.002 4.416 0 8.416 1.793 11.313 4.69l8.57 8.58c20.16 20.16 54.63 5.88 54.63-22.63V80c0-8.831 7.169-16 16-16s16 7.169 16 16v12.12c0 28.51 34.47 42.79 54.63 22.63l8.57-8.58a15.96 15.96 0 0 1 11.318-4.685c8.83 0 16.002 7.17 16.002 16.002 0 4.416-1.793 8.416-4.69 11.313l-8.58 8.57c-20.16 20.16-5.88 54.63 22.63 54.63zm-96 0c8.831 0 16-7.169 16-16s-7.169-16-16-16-16 7.169-16 16 7.169 16 16 16"/><glyph glyph-name="sink" unicode="" d="M32 32v32h448V32c0-52.983-43.017-96-96-96H128c-52.983 0-96 43.017-96 96m464 128c8.831 0 16-7.169 16-16v-32c0-8.831-7.169-16-16-16H16c-8.831 0-16 7.169-16 16v32c0 8.831 7.169 16 16 16h96v32H48c-8.831 0-16 7.169-16 16v16c0 8.831 7.169 16 16 16h80c17.661 0 32-14.339 32-32v-48h64v188.21c0 46.43 31.29 89.08 76.87 97.93a95.7 95.7 0 0 0 18.97 1.887c53.028 0 96.088-43.016 96.16-96.027v-16c0-8.83-7.169-16-16-16h-32c-8.831 0-16 7.17-16 16v16c0 17.661-14.339 32-32 32s-32-14.339-32-32V160h64v48c0 17.661 14.339 32 32 32h80c8.831 0 16-7.169 16-16v-16c0-8.83-7.169-16-16-16h-64v-32z"/><glyph glyph-name="soap" unicode="" d="M416 256c52.983 0 96-43.017 96-96V32c0-52.983-43.017-96-96-96H96C43.017-64 0-20.983 0 32v128c0 52.983 43.017 96 96 96h128c.063-24.628 9.497-47.113 24.91-64H160c-52.983 0-96-43.017-96-96s43.017-96 96-96h192c.07 0 .172-.032.242-.032 52.873 0 95.8 42.927 95.8 95.8 0 41.347-26.251 76.612-62.982 90.022 19.004 17.422 30.903 42.43 30.94 70.21m-96-64c-35.322 0-64 28.678-64 64s28.678 64 64 64 64-28.678 64-64-28.678-64-64-64M208 352c-26.492 0-48 21.508-48 48s21.508 48 48 48 48-21.508 48-48-21.508-48-48-48m176 32c-17.661 0-32 14.339-32 32s14.339 32 32 32 32-14.339 32-32-14.339-32-32-32M160 160h192c35.322 0 64-28.678 64-64s-28.678-64-64-64H160c-35.322 0-64 28.678-64 64s28.678 64 64 64"/><glyph glyph-name="stopwatch-20" unicode="" horiz-adv-x="448" d="M398.5 257.09c21.105-32.33 33.501-71.143 33.501-112.596L432 144c0-116-94.87-209.77-211.28-208C106.76-62.22 12.64 36.5 16.09 150.43 19.192 251.345 94.554 334.365 192 349.5V384h-32c-8.818.027-15.973 7.181-16 16v32c.027 8.818 7.182 15.973 16 16h128c8.831 0 16-7.17 16-16v-32c0-8.831-7.169-16-16-16h-32v-34.5c37.35-5.769 71.749-21.625 99.69-44.59l24.68 24.68c2.897 2.897 6.901 4.69 11.318 4.69s8.416-1.793 11.312-4.69l22.68-22.68c2.897-2.896 4.69-6.901 4.69-11.317s-1.793-8.416-4.69-11.313l-26.59-26.58zM204.37 70.45l-49.13.04c1.8 15.63 14.85 36.2 26.41 51.2C203.56 151.79 216 167.42 216 203c0 35.15-12.57 61-55.57 61-47.95 0-56.43-32.94-56.43-60.24v-4.07c.07-4.465 3.715-8.07 8.196-8.07h25.034l.131.001a8.203 8.203 0 0 1 8.198 8.07v5.229c0 15.28 3.301 22.68 12.69 22.68 10.42 0 12.21-7.35 12.21-24.27 0-25.02-6.679-33.15-27.099-62.34-23.78-33.96-35.67-56.15-38.45-91.37a16 16 0 0 1-.045-1.16c0-9.086 7.376-16.46 16.46-16.46h83.045l.121.001a8.205 8.205 0 0 1 8.2 8.07v22.31c-.07 4.464-3.716 8.07-8.198 8.07zM344 95.68V202.7c0 38.66-19 61.3-55.8 61.3-36.62 0-56.2-22.49-56.2-63.22V95.45C232 61.52 243.19 32 286.77 32 331.7 32 344 60.52 344 95.68m-56.13 130.59c10.01 0 13.02-8.06 13-19.33V91c0-13.269-3.36-21.269-13-21.269s-13.23 7.48-13.23 20.59v115.95c0 12.5 3.82 20 13.23 20z"/><glyph glyph-name="store-alt-slash" unicode="" horiz-adv-x="640" d="M17.89 324.38 106.36 256H32.1c-25.59 0-40.79 28.5-26.59 49.8zM576 34.58l57.83-44.68a15.97 15.97 0 0 0 6.171-12.642c0-3.695-1.255-7.099-3.361-9.808L617-57.81a15.97 15.97 0 0 0-12.655-6.187 15.92 15.92 0 0 0-9.815 3.367L6.18 394.09a15.97 15.97 0 0 0-6.172 12.643c0 3.694 1.255 7.097 3.362 9.807L23 441.81a15.97 15.97 0 0 0 12.646 6.177c3.697 0 7.103-1.257 9.814-3.367l34.69-26.82 10.66 16c5.713 8.577 15.451 14.2 26.52 14.2H522.6c.004 0-.011.032-.007.032 11.117 0 20.925-5.649 26.707-14.232l85.29-128C648.7 284.5 633.5 256 608 256H289.52l41.4-32H384v-41l128-99v140h64zM320 64v26.88l64-49.47V-32c0-17.661-14.339-32-32-32H96c-17.661 0-32 14.339-32 32v256h64V64z"/><glyph glyph-name="store-slash" unicode="" horiz-adv-x="640" d="M121.51 64h226.91L505.75-64H91.23c-16.81 0-30.4 14.3-30.4 32v196.8a116 116 0 0 1 15.58-3.6 122 122 0 0 1 17.1-1.2 119.3 119.3 0 0 1 28 3.8zm-28 128.09c-.065 0-.057-.004-.121-.004-4.374 0-8.68.295-12.899.864-58.94 8.47-87.01 81.61-56.49 135l133.51-108.62c-16.71-16.52-38.9-27.24-64-27.24M602.13-10.09a16.55 16.55 0 0 0 5.867-12.676 16.5 16.5 0 0 0-3.197-9.784l-18.66-25.26a14.66 14.66 0 0 0-11.986-6.178c-3.548 0-6.804 1.26-9.344 3.358L5.87 394.09a16.55 16.55 0 0 0-5.867 12.676 16.5 16.5 0 0 0 3.198 9.784l18.66 25.26a14.65 14.65 0 0 0 11.978 6.177 14.62 14.62 0 0 0 9.352-3.367l33.69-27.4L86.27 433c5.162 8.9 14.737 14.885 25.73 15h383.81c10.998-.109 20.578-6.096 25.74-15l61.66-103.6c31.94-53.6 3.6-127.99-56.06-136.4a94 94 0 0 0-13-.91c-28.03 0-52.92 13-70.11 33.11-17.11-20.11-42-33.11-70.11-33.11a88 88 0 0 0-25.41 4.14L486.34 84.12v79.68a114.7 114.7 0 0 1 28-3.8c5.908.008 11.595.413 17.29 1.2a94 94 0 0 1 15.57 3.6V34.59z"/><glyph glyph-name="toilet-paper-slash" unicode="" horiz-adv-x="640" d="M64 256c0 10.81.53 21.34 1.42 31.67l316-244.25c-4.18-32.2-12.87-57.72-22.18-85.55C355.043-54.83 343.081-64 328.981-64H48.001c-8.795.043-15.918 7.198-15.918 16.002 0 1.745.28 3.425.797 4.998C54.25 21.12 64 42.75 64 83.87zM633.82-10.09a15.97 15.97 0 0 0 6.182-12.651 15.92 15.92 0 0 0-3.363-9.809L617-57.81a15.97 15.97 0 0 0-12.65-6.182 15.93 15.93 0 0 0-9.81 3.362L6.18 394.09a15.97 15.97 0 0 0-6.175 12.647c0 3.697 1.257 7.103 3.366 9.813L23 441.81a15.97 15.97 0 0 0 12.647 6.177c3.697 0 7.102-1.257 9.813-3.367l53.28-41.15C115.37 431.17 136.67 448 160 448h284.5C407.63 409.5 384 339.62 384 256v-73l50.43-39C423 175.6 416 214 416 256c0 106 43 192 96 192s96-86 96-192c0-92.32-32.72-168.91-76.18-187.28zM512 192c17.62 0 32 28.63 32 64s-14.37 64-32 64-32-28.62-32-64 14.37-64 32-64"/><glyph glyph-name="users-slash" unicode="" horiz-adv-x="640" d="M132.65 235.68a63.75 63.75 0 0 0-36.81-11.684c-35.235 0-63.84 28.606-63.84 63.84V288a63.4 63.4 0 0 0 4.21 22.22zm40.44-62.28c-40.2-21.907-68.89-62.142-75.18-109.4H32C14.34 64 0 78.339 0 96v32c.033 35.308 28.693 63.967 64 64h64c.023 0 .054.008.077.008 17.56 0 33.473-7.11 45.013-18.608M544 224c-35.308.033-63.967 28.692-64 64 0 35.322 28.678 64 64 64s64-28.678 64-64-28.678-64-64-64M500.56 92.89 633.831-10.1a15.97 15.97 0 0 0 6.17-12.642c0-3.694-1.254-7.099-3.36-9.808L617-57.82A15.97 15.97 0 0 0 604.35-64c-3.7 0-7.109 1.258-9.82 3.37L6.181 394.09a15.97 15.97 0 0 0-6.172 12.643c0 3.694 1.255 7.098 3.362 9.808L23 441.81a15.97 15.97 0 0 0 12.646 6.177 15.93 15.93 0 0 0 9.814-3.366l163.94-126.7C216.31 373.17 262.86 416 320 416h.07C381.845 416 432 365.847 432 304.07V304c0-47.31-29.54-86.93-71-103.23l55.09-42.6c37.68-6.537 69.098-31.467 84.47-65.28M128 44.79c0 59.79 45.74 108.38 104 114.08l244.57-189A47.4 47.4 0 0 0 464-32H176c-26.492 0-48 21.508-48 48zM576 192c35.308-.033 63.967-28.692 64-64V96c0-17.661-14.339-32-32-32h-66c-6.219 47.267-34.892 87.515-75.09 109.4 11.54 11.497 27.461 18.6 45.022 18.6z"/><glyph glyph-name="virus" unicode="" d="M483.55 220.45c.18.003.332.005.513.005 15.702 0 28.45-12.748 28.45-28.45s-12.748-28.45-28.45-28.45q-.272 0-.543.004h-21.54c-50.68 0-76.07-61.279-40.23-97.119L437 51.2a28.36 28.36 0 0 0 7.509-19.267c0-15.702-12.748-28.45-28.45-28.45-7.426 0-14.19 2.85-19.26 7.517l-15.24 15.23C345.72 62.07 284.45 36.68 284.45-14v-21.52c0-15.702-12.748-28.45-28.45-28.45s-28.45 12.748-28.45 28.45v21.54c0 50.68-61.27 76.07-97.11 40.23L115.2 11a28.36 28.36 0 0 0-19.266-7.509c-15.702 0-28.45 12.748-28.45 28.45A28.35 28.35 0 0 0 75 51.201l15.23 15.24c35.84 35.84 10.45 97.118-40.23 97.118H28.45q-.27-.004-.543-.004c-15.702 0-28.45 12.748-28.45 28.45s12.748 28.45 28.45 28.45q.273 0 .543-.005h21.57c50.68 0 76.07 61.27 40.23 97.11L75 332.81a28.35 28.35 0 0 0-7.618 19.381c0 15.697 12.743 28.44 28.44 28.44A28.34 28.34 0 0 0 115.2 373l15.24-15.23c35.84-35.83 97.11-10.45 97.11 40.23v21.56c0 15.702 12.748 28.45 28.45 28.45s28.45-12.748 28.45-28.45v-21.55c0-50.68 61.27-76.06 97.11-40.23L396.8 373a28.35 28.35 0 0 0 19.387 7.623c15.696 0 28.44-12.743 28.44-28.44 0-7.482-2.896-14.293-7.627-19.374l-15.23-15.25c-35.84-35.84-10.45-97.109 40.23-97.109zM224 176c26.492 0 48 21.508 48 48s-21.508 48-48 48-48-21.508-48-48 21.508-48 48-48m80-56c13.246 0 24 10.754 24 24s-10.754 24-24 24-24-10.754-24-24 10.754-24 24-24"/><glyph glyph-name="virus-slash" unicode="" horiz-adv-x="640" d="M114 220.4c9.9.1 19.7 2.9 28.1 8l244.5-189c-21.2-7.5-38.2-26.8-38.2-53.4v-21.5c0-15.7-12.7-28.4-28.4-28.4s-28.5 12.7-28.5 28.4V-14c0 50.7-61.3 76-97.1 40.2L179.2 11c-.5-.6-1.1-1.1-1.6-1.6C166.1-1.2 148-.5 137.4 11s-9.9 29.5 1.6 40.2l15.2 15.3c35.9 35.8 10.5 97.1-40.2 97.1H92.4C76.7 163.6 64 176.3 64 192s12.7 28.4 28.4 28.4zM617-57.8c-5.4-7-15.5-8.3-22.4-2.9L6.2 394c-7 5.5-8.2 15.5-2.8 22.5L23 441.8c5.5 7 15.5 8.2 22.5 2.8l93.2-72.1c11.1 11.1 29.4 11.6 40.5.5l15.3-15.2c35.8-35.9 97.1-10.5 97.1 40.2v21.6c0 15.7 12.7 28.4 28.4 28.4s28.4-12.7 28.5-28.5v-21.6c0-50.7 61.3-76 97.1-40.2l15.2 15.2c10.9 10.1 27.7 10.1 38.6 0 11.6-10.7 12.3-28.7 1.6-40.2l-15.2-15.3c-35.9-35.8-10.5-97.1 40.2-97.1h21.5c15.7 0 28.4-12.7 28.4-28.4s-12.7-28.4-28.4-28.4H526c-30.5 0-51.2-22.1-55.4-47.5L633.8-10c7-5.5 8.2-15.5 2.8-22.5zM335.4 220.5c.1 1.2.6 2.3.5 3.5 0 26.5-21.5 48-48 48-5.2-.1-10.5-1.1-15.4-2.9z"/><glyph glyph-name="viruses" unicode="" horiz-adv-x="640" d="M624 96c8.831 0 16-7.169 16-16s-7.169-16-16-16h-12.12c-28.51 0-42.79-34.47-22.63-54.63L597.83.8a15.96 15.96 0 0 0 4.685-11.318c0-8.83-7.17-16.002-16.002-16.002a15.95 15.95 0 0 0-11.313 4.69l-8.57 8.58C546.47 6.91 512-7.37 512-35.88V-48c0-8.831-7.169-16-16-16s-16 7.169-16 16v12.12c0 28.51-34.47 42.79-54.63 22.63l-8.57-8.58a15.96 15.96 0 0 0-11.318-4.685c-8.83 0-16.002 7.17-16.002 16.002 0 4.416 1.793 8.416 4.69 11.313l8.58 8.57C422.91 29.53 408.63 64 380.12 64H368c-8.831 0-16 7.169-16 16s7.169 16 16 16h12.12c28.51 0 42.79 34.47 22.63 54.63l-8.58 8.57a15.96 15.96 0 0 0-4.685 11.318c0 8.83 7.17 16.002 16.002 16.002 4.416 0 8.416-1.793 11.313-4.69l8.57-8.58c20.16-20.16 54.63-5.88 54.63 22.63V208c0 8.831 7.169 16 16 16s16-7.169 16-16v-12.12c0-28.51 34.47-42.79 54.63-22.63l8.57 8.58a15.96 15.96 0 0 0 11.318 4.685c8.83 0 16.002-7.17 16.002-16.002 0-4.416-1.793-8.416-4.69-11.313l-8.58-8.57C569.09 130.47 583.37 96 611.88 96zM480 64c17.661 0 32 14.339 32 32s-14.339 32-32 32-32-14.339-32-32 14.339-32 32-32M346.51 234.67c-38.02 0-57.05-45.96-30.17-72.84l11.43-11.43a21.28 21.28 0 0 0 6.246-15.087c0-11.775-9.56-21.334-21.334-21.334-5.887 0-11.22 2.39-15.082 6.252l-11.43 11.43c-26.84 26.88-72.84 7.83-72.84-30.17V85.33C213.33 73.557 203.773 64 192 64s-21.33 9.558-21.33 21.33v16.16c0 38.02-45.96 57.05-72.84 30.17L86.4 120.23a21.28 21.28 0 0 0-15.087-6.246c-11.775 0-21.334 9.56-21.334 21.334 0 5.887 2.39 11.22 6.252 15.082l11.43 11.43c26.88 26.84 7.83 72.84-30.17 72.84H21.33C9.557 234.67 0 244.228 0 256s9.557 21.33 21.33 21.33h16.16c38.019 0 57.05 45.96 30.17 72.84l-11.43 11.44a21.27 21.27 0 0 0-6.19 15.032c0 11.772 9.557 21.33 21.33 21.33 5.86 0 11.172-2.37 15.03-6.202l11.43-11.43c26.84-26.88 72.84-7.83 72.84 30.17v16.16c0 11.772 9.557 21.33 21.33 21.33s21.33-9.558 21.33-21.33v-16.16c0-38.02 45.96-57.05 72.84-30.17l11.429 11.43a21.27 21.27 0 0 0 15.036 6.195c11.773 0 21.33-9.558 21.33-21.33a21.26 21.26 0 0 0-6.196-15.025l-11.43-11.44c-26.88-26.84-7.83-72.84 30.17-72.84h16.16c11.773 0 21.33-9.558 21.33-21.33s-9.557-21.33-21.33-21.33zM160 256c17.661 0 32 14.339 32 32s-14.339 32-32 32-32-14.339-32-32 14.339-32 32-32m80-32c8.831 0 16 7.169 16 16s-7.169 16-16 16-16-7.169-16-16 7.169-16 16-16"/><glyph glyph-name="vest" unicode="" horiz-adv-x="448" d="M437.252 208.123a63.9 63.9 0 0 0 10.748-35.5V-32c0-17.661-14.339-32-32-32H224v224l73.812 221.438A151.5 151.5 0 0 0 224 361.765a151.5 151.5 0 0 0-73.811 19.67l56.946-170.836-13.492-40.48a32 32 0 0 1-1.643-10.12V-64H32C14.339-64 0-49.66 0-32v204.623a63.9 63.9 0 0 0 10.748 35.5L64 288v128c0 17.661 14.339 32 32 32h32a24 24 0 0 0 13.312-4.03l25-16.673c16.48-11.018 36.497-17.446 57.793-17.446s41.102 6.428 57.584 17.446l25 16.672A24 24 0 0 0 320 448h32c17.661 0 32-14.339 32-32V288zM131.312 76.689a15.95 15.95 0 0 1 4.488 11.115c0 8.83-7.17 16-16 16a15.94 15.94 0 0 1-11.111-4.492l-48-48a15.95 15.95 0 0 1-4.488-11.116c0-8.83 7.17-16 16-16a15.94 15.94 0 0 1 11.111 4.493zm256-48c2.897 2.894 4.69 6.898 4.69 11.313s-1.793 8.415-4.69 11.31l-48 48a15.95 15.95 0 0 1-11.115 4.488c-8.831 0-16-7.17-16-16 0-4.315 1.71-8.233 4.492-11.111l48-48c2.895-2.898 6.898-4.69 11.313-4.69s8.416 1.792 11.31 4.69"/><glyph glyph-name="vest-patches" unicode="" horiz-adv-x="448" d="M437.252 208.123a63.9 63.9 0 0 0 10.748-35.5V-32c0-17.661-14.339-32-32-32H224v224l73.81 221.434A151.5 151.5 0 0 0 224 361.766a151.5 151.5 0 0 0-73.811 19.674l56.946-170.84-13.492-40.48A32 32 0 0 1 192 160V-64H32C14.339-64 0-49.66 0-32v204.623a63.9 63.9 0 0 0 10.748 35.5L64 288v128c0 17.661 14.339 32 32 32h32l.028-.014c4.911 0 9.48-1.48 13.284-4.017l25-16.672c16.48-11.019 36.497-17.446 57.793-17.446s41.102 6.427 57.584 17.446l25 16.672A23.95 23.95 0 0 0 319.995 448H352c17.661 0 32-14.339 32-32V288zM63.5 175.516 79.016 160 63.5 144.485a11.98 11.98 0 0 1-3.43-8.408c0-6.63 5.38-12.011 12.01-12.011 3.278 0 6.252 1.317 8.42 3.45l15.5 15.5 15.5-15.5a11.98 11.98 0 0 1 8.424-3.446c6.629 0 12.01 5.382 12.01 12.01 0 3.27-1.31 6.238-3.434 8.405L112.984 160l15.516 15.516a11.98 11.98 0 0 1 3.43 8.408c0 6.63-5.38 12.011-12.01 12.011a11.97 11.97 0 0 1-8.42-3.45l-15.5-15.5-15.5 15.5a11.98 11.98 0 0 1-8.424 3.446c-6.629 0-12.01-5.382-12.01-12.01 0-3.27 1.31-6.238 3.434-8.405M96-8c22.076 0 40 17.924 40 40s-17.924 40-40 40-40-17.924-40-40S73.924-8 96-8m263.227 120.215c13.688.097 24.773 11.214 24.773 24.923q0 1.137-.1 2.247c-1.163 12.8-12.573 22.111-25.4 22.076l-5.05-.037.037 5.058c.072 12.8-9.268 24.256-22.057 25.419-.742.066-1.47.094-2.23.094-13.7 0-24.841-11.052-24.985-24.72L304 118.7v-.029a6.673 6.673 0 0 1 6.67-6.67h.03z"/><glyph glyph-name="glass-martini" unicode="" d="M502.05 390.4 288 176.36V-16h56c22.09 0 40-17.91 40-40 0-4.42-3.58-8-8-8H136c-4.42 0-8 3.58-8 8 0 22.09 17.91 40 40 40h56v192.36L9.95 390.4C-11.3 411.66 3.75 448 33.8 448h444.4c30.05 0 45.1-36.34 23.85-57.6"/><glyph glyph-name="music" unicode="" d="M470.38 446.49a32 32 0 0 0 9.62 1.48c17.652 0 31.984-14.323 32-31.97V64c0-35.35-43-64-96-64s-96 28.66-96 64 43 64 96 64a138 138 0 0 0 32-3.93v184.61l-256-75V0c0-35.34-43-64-96-64S0-35.34 0 0s43 64 96 64a138.6 138.6 0 0 0 32-3.92v261.41c.009 14.312 9.434 26.433 22.41 30.509z"/><glyph glyph-name="search" unicode="" d="M505 5.3c9.3-9.4 9.3-24.6-.1-34L476.6-57c-9.3-9.4-24.5-9.4-33.9 0L343 42.7c-4.5 4.5-7 10.6-7 17V76c-35.3-27.6-79.7-44-128-44C93.1 32 0 125.1 0 240s93.1 208 208 208 208-93.1 208-208c0-48.3-16.4-92.7-44-128h16.3c6.4 0 12.5-2.5 17-7zM208 112c70.8 0 128 57.3 128 128 0 70.8-57.3 128-128 128-70.8 0-128-57.3-128-128 0-70.8 57.3-128 128-128"/><glyph glyph-name="heart" unicode="" d="M462.3 385.4c62.8-53.6 66.1-149.801 9.8-207.9L278.6-22.3c-12.5-12.9-32.8-12.9-45.3 0L39.8 177.5c-56.2 58.1-52.9 154.3 9.9 207.9 54.8 46.7 136.4 38.3 186.6-13.6l19.7-20.3 19.7 20.3c50.3 51.9 131.8 60.3 186.6 13.6"/><glyph glyph-name="star" unicode="" horiz-adv-x="576" d="M259.3 430.2c11.8 23.9 45.7 23.6 57.4 0L382 297.8l146.1-21.3c26.2-3.8 36.7-36.1 17.7-54.6l-105.7-103 25-145.5c4.5-26.3-23.199-45.9-46.399-33.7l-130.7 68.7-130.7-68.7c-23.2-12.3-50.9 7.4-46.4 33.7l25 145.5-105.7 103c-19 18.5-8.5 50.8 17.7 54.6l146.1 21.3z"/><glyph glyph-name="user" unicode="" horiz-adv-x="448" d="M224 192c-70.7 0-128 57.3-128 128s57.3 128 128 128 128-57.3 128-128-57.3-128-128-128m89.6-32C387.8 160 448 99.8 448 25.6V-16c0-26.5-21.5-48-48-48H48C21.5-64 0-42.5 0-16v41.6C0 99.8 60.2 160 134.4 160h16.7c22.3-10.2 46.9-16 72.9-16s50.7 5.8 72.9 16z"/><glyph glyph-name="film" unicode="" d="M488 384c13.3 0 24-10.7 24-24V24c0-13.3-10.7-24-24-24h-8v20c0 6.6-5.4 12-12 12h-40c-6.6 0-12-5.4-12-12V0H96v20c0 6.6-5.4 12-12 12H44c-6.6 0-12-5.4-12-12V0h-8C10.7 0 0 10.7 0 24v336c0 13.3 10.7 24 24 24h8v-20c0-6.6 5.4-12 12-12h40c6.6 0 12 5.4 12 12v20h320v-20c0-6.6 5.4-12 12-12h40c6.6 0 12 5.4 12 12v20zM96 76v40c0 6.6-5.4 12-12 12H44c-6.6 0-12-5.4-12-12V76c0-6.6 5.4-12 12-12h40c6.6 0 12 5.4 12 12m0 96v40c0 6.6-5.4 12-12 12H44c-6.6 0-12-5.4-12-12v-40c0-6.6 5.4-12 12-12h40c6.6 0 12 5.4 12 12m0 96v40c0 6.6-5.4 12-12 12H44c-6.6 0-12-5.4-12-12v-40c0-6.6 5.4-12 12-12h40c6.6 0 12 5.4 12 12M368 60v96c0 6.6-5.4 12-12 12H156c-6.6 0-12-5.4-12-12V60c0-6.6 5.4-12 12-12h200c6.6 0 12 5.4 12 12m0 168v96c0 6.6-5.4 12-12 12H156c-6.6 0-12-5.4-12-12v-96c0-6.6 5.4-12 12-12h200c6.6 0 12 5.4 12 12M480 76v40c0 6.6-5.4 12-12 12h-40c-6.6 0-12-5.4-12-12V76c0-6.6 5.4-12 12-12h40c6.6 0 12 5.4 12 12m0 96v40c0 6.6-5.4 12-12 12h-40c-6.6 0-12-5.4-12-12v-40c0-6.6 5.4-12 12-12h40c6.6 0 12 5.4 12 12m0 96v40c0 6.6-5.4 12-12 12h-40c-6.6 0-12-5.4-12-12v-40c0-6.6 5.4-12 12-12h40c6.6 0 12 5.4 12 12"/><glyph glyph-name="th-large" unicode="" d="M296 416h192c13.255 0 24-10.745 24-24V232c0-13.255-10.745-24-24-24H296c-13.255 0-24 10.745-24 24v160c0 13.255 10.745 24 24 24m-80 0c13.255 0 24-10.745 24-24V232c0-13.255-10.745-24-24-24H24c-13.255 0-24 10.745-24 24v160c0 13.255 10.745 24 24 24zM0 152c0 13.255 10.745 24 24 24h192c13.255 0 24-10.745 24-24V-8c0-13.255-10.745-24-24-24H24C10.745-32 0-21.255 0-8zM296-32c-13.255 0-24 10.745-24 24v160c0 13.255 10.745 24 24 24h192c13.255 0 24-10.745 24-24V-8c0-13.255-10.745-24-24-24z"/><glyph glyph-name="th" unicode="" d="M149.333 392v-80c0-13.255-10.745-24-24-24H24c-13.255 0-24 10.745-24 24v80c0 13.255 10.745 24 24 24h101.333c13.255 0 24-10.745 24-24m181.334-240c0-13.255-10.745-24-24.001-24H205.333c-13.255 0-24 10.745-24 24v80c0 13.255 10.745 24 24 24h101.334c13.255 0 24-10.745 24-24zm32 240c0 13.255 10.745 24 24 24H488c13.255 0 24-10.745 24-24v-80c0-13.255-10.745-24-24-24H386.667c-13.255 0-24 10.745-24 24zm-32-80c0-13.255-10.745-24-24.001-24H205.333c-13.255 0-24 10.745-24 24v80c0 13.255 10.745 24 24 24h101.334c13.255 0 24-10.745 24-24zm-205.334-56c13.255 0 24-10.745 24-24v-80c0-13.255-10.745-24-24-24H24c-13.255 0-24 10.745-24 24v80c0 13.255 10.745 24 24 24zM0 72c0 13.255 10.745 24 24 24h101.333c13.255 0 24-10.745 24-24V-8c0-13.255-10.745-24-24-24H24C10.745-32 0-21.255 0-8zm386.667 56c-13.255 0-24 10.745-24 24v80c0 13.255 10.745 24 24 24H488c13.255 0 24-10.745 24-24v-80c0-13.255-10.745-24-24-24zm0-160c-13.255 0-24 10.745-24 24v80c0 13.255 10.745 24 24 24H488c13.255 0 24-10.745 24-24V-8c0-13.255-10.745-24-24-24zM181.333 72c0 13.255 10.745 24 24 24h101.333c13.255 0 24-10.745 24-24V-8c0-13.255-10.745-24-24-24H205.333c-13.255 0-24 10.745-24 24z"/><glyph glyph-name="th-list" unicode="" d="M149.333 232v-80c0-13.255-10.745-24-24-24H24c-13.255 0-24 10.745-24 24v80c0 13.255 10.745 24 24 24h101.333c13.255 0 24-10.745 24-24M0 72c0 13.255 10.745 24 24 24h101.333c13.255 0 24-10.745 24-24V-8c0-13.255-10.745-24-24-24H24C10.745-32 0-21.255 0-8zm125.333 344c13.255 0 24-10.745 24-24v-80c0-13.255-10.745-24-24-24H24c-13.255 0-24 10.745-24 24v80c0 13.255 10.745 24 24 24zm80-448c-13.255 0-24 10.745-24 24v80c0 13.255 10.745 24 24 24H488c13.255 0 24-10.745 24-24V-8c0-13.255-10.745-24-24-24zm-24 424c0 13.255 10.745 24 24 24H488c13.255 0 24-10.745 24-24v-80c0-13.255-10.745-24-24-24H205.333c-13.255 0-24 10.745-24 24zm24-264c-13.255 0-24 10.745-24 24v80c0 13.255 10.745 24 24 24H488c13.255 0 24-10.745 24-24v-80c0-13.255-10.745-24-24-24z"/><glyph glyph-name="check" unicode="" d="m173.898 8.596-166.4 166.4c-9.997 9.997-9.997 26.206 0 36.204l36.203 36.204c9.997 9.998 26.207 9.998 36.204 0L192 135.309l240.095 240.095c9.997 9.997 26.207 9.997 36.204 0l36.203-36.204c9.997-9.997 9.997-26.206 0-36.204L210.102 8.595c-9.998-9.997-26.207-9.997-36.203 0z"/><glyph glyph-name="times" unicode="" horiz-adv-x="352" d="M242.72 192 342.79 91.93c12.28-12.29 12.28-32.2 0-44.48l-22.24-22.24c-12.28-12.28-32.2-12.28-44.48 0L176 125.28 75.93 25.21c-12.279-12.28-32.199-12.28-44.48 0L9.21 47.45c-12.28 12.29-12.28 32.2 0 44.48L109.28 192 9.21 292.07c-12.28 12.29-12.28 32.2 0 44.48l22.24 22.24c12.29 12.28 32.201 12.28 44.48 0L176 258.72l100.07 100.07c12.29 12.28 32.2 12.28 44.48 0l22.24-22.24c12.28-12.29 12.28-32.2 0-44.48z"/><glyph glyph-name="search-plus" unicode="" d="M304 256v-32c0-6.6-5.4-12-12-12h-56v-56c0-6.6-5.4-12-12-12h-32c-6.6 0-12 5.4-12 12v56h-56c-6.6 0-12 5.4-12 12v32c0 6.6 5.4 12 12 12h56v56c0 6.6 5.4 12 12 12h32c6.6 0 12-5.4 12-12v-56h56c6.6 0 12-5.4 12-12M505-28.7 476.7-57c-9.4-9.4-24.6-9.4-33.9 0L343 42.7c-4.5 4.5-7 10.6-7 17V76c-35.3-27.6-79.7-44-128-44C93.1 32 0 125.1 0 240s93.1 208 208 208 208-93.1 208-208c0-48.3-16.4-92.7-44-128h16.3c6.4 0 12.5-2.5 17-7L505 5.3c9.3-9.4 9.3-24.6 0-34M344 240c0 75.2-60.8 136-136 136S72 315.2 72 240s60.8-136 136-136 136 60.8 136 136"/><glyph glyph-name="search-minus" unicode="" d="M304 256v-32c0-6.6-5.4-12-12-12H124c-6.6 0-12 5.4-12 12v32c0 6.6 5.4 12 12 12h168c6.6 0 12-5.4 12-12M505-28.7 476.7-57c-9.4-9.4-24.6-9.4-33.9 0L343 42.7c-4.5 4.5-7 10.6-7 17V76c-35.3-27.6-79.7-44-128-44C93.1 32 0 125.1 0 240s93.1 208 208 208 208-93.1 208-208c0-48.3-16.4-92.7-44-128h16.3c6.4 0 12.5-2.5 17-7L505 5.3c9.3-9.4 9.3-24.6 0-34M344 240c0 75.2-60.8 136-136 136S72 315.2 72 240s60.8-136 136-136 136 60.8 136 136"/><glyph glyph-name="power-off" unicode="" d="M400 393.9c63-45 104-118.601 104-201.9C504 55.2 393.2-55.7 256.5-56 120-56.3 8.2 55 8 191.6c-.1 83.3 40.9 157.101 103.8 202.2 11.7 8.3 28 4.8 35-7.7l15.8-28.1c5.9-10.5 3.1-23.8-6.6-31-41.5-30.8-68-79.6-68-134.9C87.9 99.8 162.5 24 256 24c91.6 0 168.6 74.2 168 169.1-.3 51.801-24.7 101.801-68.1 134-9.7 7.2-12.4 20.5-6.5 30.9l15.8 28.1c7 12.4 23.2 16.1 34.8 7.801zM296 184c0-13.3-10.7-24-24-24h-32c-13.3 0-24 10.7-24 24v240c0 13.3 10.7 24 24 24h32c13.3 0 24-10.7 24-24z"/><glyph glyph-name="signal" unicode="" horiz-adv-x="640" d="M216 160c8.84 0 16-7.16 16-16V-48c0-8.84-7.16-16-16-16h-48c-8.84 0-16 7.16-16 16v192c0 8.84 7.16 16 16 16zM88 64c8.84 0 16-7.16 16-16v-96c0-8.84-7.16-16-16-16H40c-8.84 0-16 7.16-16 16v96c0 8.84 7.16 16 16 16zm256 192c8.84 0 16-7.16 16-16V-48c0-8.84-7.16-16-16-16h-48c-8.84 0-16 7.16-16 16v288c0 8.84 7.16 16 16 16zm128 96c8.84 0 16-7.16 16-16V-48c0-8.84-7.16-16-16-16h-48c-8.84 0-16 7.16-16 16v384c0 8.84 7.16 16 16 16zm128 96c8.84 0 16-7.16 16-16V-48c0-8.84-7.16-16-16-16h-48c-8.84 0-16 7.16-16 16v480c0 8.84 7.16 16 16 16z"/><glyph glyph-name="cog" unicode="" d="M487.4 132.3c4.9-2.8 7.1-8.6 5.6-14.1-11.1-35.7-30-67.9-54.7-94.6-3.8-4.2-9.9-5.1-14.8-2.3l-42.6 24.6c-18-15.3-38.6-27.2-60.8-35.1v-49.2c0-5.6-3.9-10.5-9.4-11.7-34.9-7.8-72.5-8.2-109.2 0-5.5 1.2-9.4 6.1-9.4 11.7v49.2c-22.3 7.8-42.9 19.7-60.8 35.1L88.7 21.3c-4.8-2.8-11-1.8-14.8 2.3-24.7 26.8-43.6 59-54.7 94.6-1.6 5.4.6 11.2 5.5 14l42.6 24.6c-4.3 23.2-4.3 47 0 70.2l-42.6 24.6c-4.9 2.8-7.2 8.6-5.5 14 11.1 35.7 30 67.9 54.7 94.6 3.8 4.2 9.9 5.1 14.8 2.3l42.5-24.6c18 15.3 38.6 27.2 60.8 35.1v49.2c0 5.6 3.9 10.5 9.4 11.7 34.9 7.8 72.5 8.2 109.2 0 5.5-1.2 9.4-6.1 9.4-11.7v-49.1c22.3-7.8 42.9-19.7 60.8-35.1l42.6 24.6c4.8 2.8 11 1.8 14.8-2.3 24.7-26.8 43.6-59 54.7-94.6 1.6-5.4-.6-11.2-5.5-14l-42.6-24.6c4.3-23.2 4.3-47 0-70.2zM256 112c44.1 0 80 35.9 80 80s-35.9 80-80 80-80-35.9-80-80 35.9-80 80-80"/><glyph glyph-name="home" unicode="" horiz-adv-x="576" d="M280.37 299.74c2.09 1.686 4.766 2.694 7.658 2.694s5.551-1.008 7.642-2.694L480 148V-16c0-8.831-7.17-16-16-16l-112.02.31c-8.831 0-16.001 7.169-16.001 15.999V80c0 8.831-7.17 16-16 16h-64c-8.83 0-16-7.169-16-16v-95.71c0-8.804-7.126-15.956-15.92-16L111.999-32c-8.831 0-16 7.169-16 16v163.89zM571.6 196.53a11.98 11.98 0 0 0 4.426-9.318c0-2.889-1.023-5.54-2.726-7.613l-25.5-31a11.98 11.98 0 0 0-9.257-4.35 11.95 11.95 0 0 0-7.642 2.75L295.67 340.74a12.18 12.18 0 0 1-7.658 2.695 12.14 12.14 0 0 1-7.642-2.694L45.151 147a11.98 11.98 0 0 0-16.91 1.63l-25.5 31a11.98 11.98 0 0 0 1.6 16.9L257.47 405c8.29 6.822 18.966 10.92 30.53 10.92s22.18-4.098 30.47-10.92L408 331.34v72.61c0 6.623 5.377 12 12 12h56c6.623 0 12-5.377 12-12V265.44z"/><glyph glyph-name="clock" unicode="" d="M256 440c137 0 248-111 248-248S393-56 256-56 8 55 8 192s111 248 248 248m92.49-313a15.96 15.96 0 0 1 3.526 10c0 5.056-2.35 9.567-6.016 12.5L288 192v144c0 8.831-7.17 16-16 16h-32c-8.831 0-16-7.169-16-16V180.45c0-12.634 5.842-23.897 15-31.23l67-49.72a15.96 15.96 0 0 1 9.989-3.518c5.056 0 9.567 2.35 12.501 6.018z"/><glyph glyph-name="road" unicode="" horiz-adv-x="576" d="M573.19 45.33C582.45 24.14 567.69 0 545.46 0H348.62l-10.311 97.68c-.86 8.14-7.72 14.32-15.91 14.32h-68.8c-8.19 0-15.05-6.18-15.91-14.32L227.38 0H30.54C8.31 0-6.45 24.14 2.8 45.33l139.79 320c4.97 11.38 15.8 18.67 27.73 18.67h97.59l-2.45-23.16c-.5-4.72 3.21-8.84 7.96-8.84h29.16c4.75 0 8.46 4.12 7.96 8.84L308.09 384h97.59c11.92 0 22.75-7.29 27.72-18.67zM260.4 312.84l-4.59-43.58c-.75-7.09 4.8-13.26 11.93-13.26h40.54c7.12 0 12.68 6.17 11.93 13.26l-4.6 43.58a8.007 8.007 0 0 1-7.96 7.16h-39.29c-.002 0-.004-.008-.005-.008-4.129 0-7.531-3.134-7.955-7.152M315.64 144c9.5 0 16.91 8.23 15.91 17.68l-5.07 48c-.86 8.14-7.72 14.32-15.91 14.32h-45.15c-8.19 0-15.05-6.18-15.91-14.32l-5.07-48c-1-9.45 6.41-17.68 15.91-17.68z"/><glyph glyph-name="download" unicode="" d="M216 448h80c13.3 0 24-10.7 24-24V256h87.7c17.8 0 26.7-21.5 14.1-34.1L269.7 69.7c-7.5-7.5-19.8-7.5-27.3 0L90.099 221.9c-12.6 12.6-3.7 34.1 14.1 34.1H192v168c0 13.3 10.7 24 24 24M512 72V-40c0-13.3-10.7-24-24-24H24C10.7-64 0-53.3 0-40V72c0 13.3 10.7 24 24 24h146.7l49-49c20.1-20.1 52.5-20.1 72.6 0l49 49H488c13.3 0 24-10.7 24-24M388-16c0 11-9 20-20 20s-20-9-20-20 9-20 20-20 20 9 20 20m64 0c0 11-9 20-20 20s-20-9-20-20 9-20 20-20 20 9 20 20"/><glyph glyph-name="inbox" unicode="" horiz-adv-x="576" d="M567.938 204.092A47.93 47.93 0 0 0 576 177.467V48c0-26.51-21.49-48-48-48H48C21.49 0 0 21.49 0 48v129.467a47.93 47.93 0 0 0 8.061 26.625L113.75 362.626c8.607 12.91 23.273 21.374 39.939 21.374h268.62c16.668 0 31.333-8.464 39.94-21.374zM162.252 320 76.918 192H200l32-64h112l32 64h123.082l-85.333 128z"/><glyph glyph-name="redo" unicode="" d="M500.33 448c6.623 0 12-5.377 12-12V235.66c0-6.623-5.377-12-12-12H300c-6.623 0-12 5.377-12 12v47.41c0 .004-.009.009-.009.014 0 6.623 5.377 12 12 12q.291 0 .58-.014l101.528-4.87c-31.608 47.032-85.117 77.86-145.992 77.86-97.136 0-176-78.864-176-176s78.864-176 176-176c44.502 0 85.168 16.551 116.173 43.83a11.97 11.97 0 0 0 7.898 2.965c3.31 0 6.31-1.343 8.482-3.515l34-34a11.96 11.96 0 0 0 3.523-8.487c0-3.551-1.547-6.745-4.003-8.943C378.332-31.782 320.1-56 256.356-56H256C119.1-56 8.1 54.93 8 191.81 7.9 328.47 119.34 440 256 440c.093 0 .116.14.21.14 75.591 0 143.311-33.972 188.71-87.47l-4 82.76c-.009.192-.013.376-.013.57 0 6.623 5.377 12 12 12z"/><glyph glyph-name="sync" unicode="" d="M440.65 435.43c-.01.192-.014.376-.014.57 0 6.621 5.373 11.996 11.994 12H500c6.623 0 12-5.377 12-12V235.65c0-6.623-5.377-12-12-12H299.78c-6.623 0-12 5.377-12 12v47.41c0 .004-.01.01-.01.013 0 6.623 5.378 12 12 12q.292 0 .579-.013l101.46-4.86c-31.594 46.994-85.14 77.674-145.973 77.674-82.866 0-152.428-57.423-171.027-134.614-1.242-5.297-5.997-9.254-11.67-9.26H24.09c-6.623 0-12 5.367-12 11.99 0 .748.07 1.48.2 2.19C33.91 353.08 134.73 440 255.83 440c.097 0 .124.141.22.141 75.562 0 143.248-33.98 188.601-87.48zM255.83 16c.016 0 .019.09.033.09 82.87 0 152.43 57.443 170.997 134.65 1.242 5.297 5.997 9.254 11.67 9.26h49.05c6.623 0 12-5.368 12-11.99 0-.748-.07-1.48-.2-2.19C477.76 30.92 376.94-56 255.83-56c-.08 0-.091-.14-.171-.14-75.482 0-143.106 33.907-188.46 87.31l4.15-82.57c.011-.202.016-.396.016-.6 0-6.623-5.377-12-12-12H11.999C5.378-64 0-58.623 0-52v200.33c0 6.623 5.378 12 12 12h200.2c6.624 0 12-5.377 12-12v-47.4c0-.004.008-.01.008-.014 0-6.623-5.377-12-12-12q-.29 0-.578.013l-101.8 4.87C141.355 46.792 194.874 16 255.676 16z"/><glyph glyph-name="list-alt" unicode="" d="M464-32H48C21.49-32 0-10.51 0 16v352c0 26.51 21.49 48 48 48h416c26.51 0 48-21.49 48-48V16c0-26.51-21.49-48-48-48M128 328c-22.09 0-40-17.91-40-40s17.91-40 40-40 40 17.91 40 40-17.91 40-40 40m0-96c-22.09 0-40-17.91-40-40s17.91-40 40-40 40 17.91 40 40-17.91 40-40 40m0-96c-22.09 0-40-17.91-40-40s17.91-40 40-40 40 17.91 40 40-17.91 40-40 40m288 136v32c0 6.627-5.373 12-12 12H204c-6.627 0-12-5.373-12-12v-32c0-6.627 5.373-12 12-12h200c6.627 0 12 5.373 12 12m0-96v32c0 6.627-5.373 12-12 12H204c-6.627 0-12-5.373-12-12v-32c0-6.627 5.373-12 12-12h200c6.627 0 12 5.373 12 12m0-96v32c0 6.627-5.373 12-12 12H204c-6.627 0-12-5.373-12-12V80c0-6.627 5.373-12 12-12h200c6.627 0 12 5.373 12 12"/><glyph glyph-name="lock" unicode="" horiz-adv-x="448" d="M400 224c26.5 0 48-21.5 48-48V-16c0-26.5-21.5-48-48-48H48C21.5-64 0-42.5 0-16v192c0 26.5 21.5 48 48 48h24v72c0 83.8 68.2 152 152 152s152-68.2 152-152v-72zm-104 0v72c0 39.7-32.3 72-72 72s-72-32.3-72-72v-72z"/><glyph glyph-name="flag" unicode="" d="M349.565 349.217c40.495 0 82.611 15.906 116.949 31.855 21.217 9.853 45.485-5.624 45.485-29.017v-243.1c0-10.526-5.16-20.407-13.842-26.358-35.838-24.564-74.336-40.858-122.505-40.858-67.373 0-111.63 34.783-165.218 34.783-50.853 0-86.124-10.058-114.435-22.122V-40c0-13.255-10.745-24-24-24h-16c-13.255 0-24 10.745-24 24v386.055c-14.503 10.12-24 26.919-24 45.945 0 31.704 26.344 57.254 58.338 55.952 28.467-1.158 51.779-23.967 53.55-52.403.076-1.192.093-2.373.093-3.583a55.7 55.7 0 0 0-3.679-19.979c20.737 7.63 43.09 12.013 68.045 12.013 67.373 0 111.63-34.783 165.218-34.783z"/><glyph glyph-name="headphones" unicode="" d="M256 416c141.504 0 256-114.521 256-256v-48c0-12.531-7.187-23.371-17.69-28.622l-14.382-7.192C477.918 16.098 428.579-32 368-32h-24c-13.255 0-24 10.746-24 24v176c0 13.255 10.745 24 24 24h24c31.342 0 59.67-12.878 80-33.627V160c0 105.87-86.131 192-192 192S64 265.87 64 160v-1.627C84.329 179.12 112.658 192 144 192h24c13.255 0 24-10.745 24-24V-8c0-13.254-10.745-24-24-24h-24C83.42-32 34.083 16.096 32.072 76.186l-14.383 7.192C7.187 88.628-.001 99.468-.001 112v48c0 141.504 114.52 256 256 256z"/><glyph glyph-name="volume-off" unicode="" horiz-adv-x="256" d="M215 377c15 15 41 4.47 41-17V24c0-21.47-26-32-41-17l-88.94 89H24c-13.246 0-24 10.754-24 24v144c0 13.246 10.754 24 24 24h102z"/><glyph glyph-name="volume-down" unicode="" horiz-adv-x="384" d="M215.03 375.96c15.01 15 40.97 4.49 40.97-16.98V23.02c0-21.44-25.94-32-40.97-16.97L126.06 95H24c-13.26 0-24 10.75-24 24v144c0 13.26 10.74 24 24 24h102.06zm123.2-108.08c28.24-15.55 45.78-44.99 45.78-76.87s-17.54-61.33-45.77-76.88c-11.56-6.35-26.18-2.21-32.61 9.45-6.39 11.61-2.16 26.2 9.45 32.61C327.98 163.28 336 176.62 336 191s-8.02 27.72-20.93 34.82c-11.61 6.41-15.84 21-9.45 32.61 6.42 11.61 21.03 15.78 32.61 9.45"/><glyph glyph-name="volume-up" unicode="" horiz-adv-x="576" d="M215.03 376.95c15.01 15.01 40.97 4.49 40.97-16.97V24.02c0-21.44-25.94-32-40.97-16.97L126.06 96H24c-13.26 0-24 10.75-24 24v144c0 13.26 10.74 24 24 24h102.06zm233.32 51.08C528.27 375.57 576 287.33 576 192S528.27 8.42 448.35-44.04c-11.58-7.61-26.47-3.76-33.51 6.95-7.34 11.16-4.22 26.18 6.95 33.5 66.27 43.49 105.82 116.6 105.82 195.58s-39.55 152.09-105.82 195.58c-11.17 7.33-14.29 22.34-6.95 33.51 7.33 11.19 22.34 14.28 33.51 6.95M480 192c0-63.54-32.06-121.94-85.77-156.24-12-7.68-26.61-2.9-33.12 7.46-7.09 11.29-3.78 26.22 7.41 33.36C408.27 101.97 432 145.11 432 192s-23.73 90.03-63.48 115.42c-11.19 7.15-14.5 22.08-7.41 33.36s21.93 14.6 33.12 7.46C447.94 313.94 480 255.53 480 192m-141.77 76.87c28.24-15.54 45.78-44.98 45.78-76.86s-17.54-61.33-45.77-76.88c-11.56-6.35-26.18-2.21-32.61 9.45-6.39 11.61-2.16 26.2 9.45 32.61C327.98 164.28 336 177.62 336 192c0 14.37-8.02 27.72-20.93 34.81-11.61 6.41-15.84 21-9.45 32.61 6.42 11.61 21.03 15.78 32.61 9.45"/><glyph glyph-name="qrcode" unicode="" horiz-adv-x="448" d="M0 224v192h192V224zm64 128v-64h64v64zm192 64h192V224H256zm128-128v64h-64v-64zM0-32v192h192V-32zM64 96V32h64v64zm352 64h32V32h-96v32h-32v-96h-64v192h96v-32h64zm0-160h32v-32h-32zm-64 0h32v-32h-32z"/><glyph glyph-name="barcode" unicode="" d="M0 0v384h18V0zm26.857.273V384H36V.273zM54 .273V384h8.857V.273zm44.857 0V384h8.857V.273zm36 0V384h17.714V.273zm44.857 0V384h8.857V.273zm18 0V384h8.857V.273zm18 0V384h8.857V.273zm35.715 0V384h18V.273zm44.857 0V384h18V.273zm35.999 0V384h18.001V.273zm36.001 0V384h18.001V.273zm26.857 0V384h18V.273zm45.143 0V384h26.856V.273zm35.714 0V384h9.143V.273zM494 0v384h18V0z"/><glyph glyph-name="tag" unicode="" d="M0 195.882V400c0 26.51 21.49 48 48 48h204.118c13.246 0 25.252-5.37 33.94-14.059l211.883-211.883c18.745-18.744 18.745-49.136 0-67.881L293.823-49.941c-18.745-18.745-49.137-18.745-67.881 0L14.059 161.942C5.37 170.63 0 182.636 0 195.882M112 384c-26.51 0-48-21.49-48-48s21.49-48 48-48 48 21.49 48 48-21.49 48-48 48"/><glyph glyph-name="tags" unicode="" horiz-adv-x="640" d="M497.941 222.059c18.744-18.744 18.744-49.137 0-67.882L293.823-49.94c-18.746-18.745-49.139-18.744-67.882 0L14.058 161.942C5.37 170.631 0 182.637 0 195.882v204.119c0 26.51 21.49 48 48 48h204.118c13.246 0 25.252-5.37 33.94-14.059zM112 288c26.51 0 48 21.49 48 48s-21.49 48-48 48-48-21.49-48-48 21.49-48 48-48m513.941-133.823L421.823-49.941c-18.745-18.744-49.138-18.744-67.882 0l-.36.36L527.64 124.48c16.999 16.998 26.36 39.6 26.36 63.64s-9.362 46.64-26.36 63.64L331.398 448h48.72c13.247 0 25.253-5.37 33.94-14.059l211.884-211.883c18.744-18.744 18.744-49.137 0-67.882z"/><glyph glyph-name="book" unicode="" horiz-adv-x="448" d="M448 88c0-7.5-3.5-14.3-8.9-18.6-4.2-15.4-4.2-59.3 0-74.7 5.4-4.4 8.9-11.2 8.9-18.7v-16c0-13.3-10.7-24-24-24H96C43-64 0-21 0 32v320c0 53 43 96 96 96h328c13.3 0 24-10.7 24-24zM128 314v-20c0-3.3 2.7-6 6-6h212c3.3 0 6 2.7 6 6v20c0 3.3-2.7 6-6 6H134c-3.3 0-6-2.7-6-6m0-64v-20c0-3.3 2.7-6 6-6h212c3.3 0 6 2.7 6 6v20c0 3.3-2.7 6-6 6H134c-3.3 0-6-2.7-6-6M381.4 0c-1.9 17.1-1.9 46.9 0 64H96c-17.6 0-32-14.4-32-32C64 14.3 78.3 0 96 0z"/><glyph glyph-name="bookmark" unicode="" horiz-adv-x="384" d="M0-64v464c0 26.51 21.49 48 48 48h288c26.51 0 48-21.49 48-48V-64L192 48z"/><glyph glyph-name="print" unicode="" d="M448 256c35.35 0 64-28.65 64-64V80c0-8.84-7.16-16-16-16h-48v-96c0-17.67-14.33-32-32-32H96c-17.67 0-32 14.33-32 32v96H16C7.16 64 0 71.16 0 80v112c0 35.35 28.65 64 64 64v160c0 17.67 14.33 32 32 32h274.74a32 32 0 0 0 22.63-9.37l45.26-45.25c6-6.01 9.37-14.14 9.37-22.63zM384 0v96H128V0zm0 224v96h-48c-8.84 0-16 7.16-16 16v48H128V224zm48-72c13.25 0 24 10.75 24 24 0 13.26-10.75 24-24 24s-24-10.74-24-24c0-13.25 10.75-24 24-24"/><glyph glyph-name="camera" unicode="" d="M512 304V16c0-26.5-21.5-48-48-48H48C21.5-32 0-10.5 0 16v288c0 26.5 21.5 48 48 48h88l12.3 32.9c7 18.7 24.9 31.1 44.9 31.1h125.5c20 0 37.9-12.4 44.9-31.1L376 352h88c26.5 0 48-21.5 48-48M376 160c0 66.2-53.8 120-120 120s-120-53.8-120-120S189.8 40 256 40s120 53.8 120 120m-32 0c0-48.5-39.5-88-88-88s-88 39.5-88 88 39.5 88 88 88 88-39.5 88-88"/><glyph glyph-name="font" unicode="" horiz-adv-x="448" d="M432 32c8.831 0 16-7.169 16-16v-32c0-8.831-7.169-16-16-16H304c-8.831 0-16 7.169-16 16v32c0 8.831 7.169 16 16 16h19.58l-23.3 64H147.72l-23.3-64H144c8.83 0 16-7.169 16-16v-32c0-8.831-7.17-16-16-16H16C7.169-32 0-24.831 0-16v32c0 8.831 7.169 16 16 16h23.41l130.71 362.31c4.293 12.613 16.236 21.69 30.293 21.69h47.167l-.003.007c14.058 0 26.01-9.084 30.303-21.697L408.59 32zM176.85 176h94.3L224 305.49z"/><glyph glyph-name="bold" unicode="" horiz-adv-x="384" d="M333.49 210c34.44-27.54 55.57-71.15 50.83-119.6-6.86-70.65-70.2-122.4-141-122.4H34c-8.83 0-16 7.169-16 16v48c0 8.831 7.17 16 16 16h31.87v288H34c-8.83 0-16 7.169-16 16v48c0 8.831 7.17 16 16 16h199.42c74.58 0 134.45-64.49 127.07-140.79a122.15 122.15 0 0 0-27-65.21M145.66 336v-96h87.76c26.492 0 48 21.508 48 48s-21.508 48-48 48zm87.76-288c30.907 0 56 25.093 56 56s-25.093 56-56 56h-87.76V48z"/><glyph glyph-name="italic" unicode="" horiz-adv-x="320" d="M320 400v-32c0-8.831-7.169-16-16-16h-62.76l-80-320H208c8.831 0 16-7.169 16-16v-32c0-8.831-7.169-16-16-16H16C7.169-32 0-24.831 0-16v32c0 8.831 7.169 16 16 16h62.76l80 320H112c-8.831 0-16 7.169-16 16v32c0 8.831 7.169 16 16 16h192c8.831 0 16-7.169 16-16"/><glyph glyph-name="text-height" unicode="" horiz-adv-x="576" d="M304 416c8.831 0 16-7.169 16-16v-96c0-8.831-7.169-16-16-16h-32c-8.831 0-16 7.169-16 16v32h-56V32h40c8.831 0 16-7.169 16-16v-32c0-8.831-7.169-16-16-16H80c-8.831 0-16 7.169-16 16v32c0 8.831 7.169 16 16 16h40v304H64v-32c0-8.831-7.169-16-16-16H16c-8.831 0-16 7.169-16 16v96c0 8.831 7.169 16 16 16zM560 80c15.64 0 20.64-18 11.31-27.31l-80-80a15.96 15.96 0 0 0-11.312-4.685 15.95 15.95 0 0 0-11.307 4.685l-80 80C378.68 62.69 385.69 80 400 80h48v224h-48c-15.64 0-20.64 18-11.31 27.31l80 80a15.96 15.96 0 0 0 11.311 4.685c4.414 0 8.412-1.79 11.308-4.685l80-80c10.02-10 3-27.31-11.31-27.31h-48V80z"/><glyph glyph-name="text-width" unicode="" horiz-adv-x="448" d="M432 416c8.831 0 16-7.169 16-16v-80c0-8.831-7.169-16-16-16h-32c-8.831 0-16 7.169-16 16v16H264V224h24c8.831 0 16-7.169 16-16v-32c0-8.831-7.169-16-16-16H160c-8.831 0-16 7.169-16 16v32c0 8.831 7.169 16 16 16h24v112H64v-16c0-8.831-7.169-16-16-16H16c-8.831 0-16 7.169-16 16v80c0 8.831 7.169 16 16 16zm-68.69-260.69 80-80a15.96 15.96 0 0 0 4.686-11.311c0-4.415-1.791-8.413-4.686-11.308l-80-80c-10-10.02-27.31-3-27.31 11.31v48H112v-48c0-15.64-18-20.64-27.31-11.31l-80 80A15.96 15.96 0 0 0 .006 64.002c0 4.414 1.791 8.413 4.686 11.308l80 80c10 10.01 27.31 3 27.31-11.31V96h224v48c0 15.64 18 20.64 27.309 11.31"/><glyph glyph-name="align-left" unicode="" horiz-adv-x="448" d="M12.83 96C5.754 96 0 101.744 0 108.82v38.36C0 154.256 5.744 160 12.82 160h262.36c7.076 0 12.82-5.744 12.82-12.82v-38.36c0-7.076-5.744-12.82-12.82-12.82zm0 256C5.754 352 0 357.744 0 364.82v38.36C0 410.256 5.744 416 12.82 416h262.36c7.076 0 12.82-5.744 12.82-12.82v-38.36c0-7.076-5.744-12.82-12.82-12.82zM432 288c8.831 0 16-7.169 16-16v-32c0-8.831-7.169-16-16-16H16c-8.831 0-16 7.169-16 16v32c0 8.831 7.169 16 16 16zm0-256c8.831 0 16-7.169 16-16v-32c0-8.831-7.169-16-16-16H16C7.169-32 0-24.831 0-16v32c0 8.831 7.169 16 16 16z"/><glyph glyph-name="align-center" unicode="" horiz-adv-x="448" d="M432 288c8.831 0 16-7.169 16-16v-32c0-8.831-7.169-16-16-16H16c-8.831 0-16 7.169-16 16v32c0 8.831 7.169 16 16 16zm0-256c8.831 0 16-7.169 16-16v-32c0-8.831-7.169-16-16-16H16C7.169-32 0-24.831 0-16v32c0 8.831 7.169 16 16 16zM108.1 352c-6.678 0-12.1 5.422-12.1 12.1v39.81c0 6.673 5.417 12.09 12.09 12.09h231.821c6.673 0 12.09-5.417 12.09-12.09v-39.82c0-6.673-5.417-12.09-12.09-12.09zM339.91 96H108.099c-6.678 0-12.1 5.422-12.1 12.1v39.81c0 6.673 5.417 12.09 12.09 12.09H339.91c6.673 0 12.09-5.417 12.09-12.09v-39.82c0-6.673-5.417-12.09-12.09-12.09"/><glyph glyph-name="align-right" unicode="" horiz-adv-x="448" d="M16 224c-8.831 0-16 7.169-16 16v32c0 8.831 7.169 16 16 16h416c8.831 0 16-7.169 16-16v-32c0-8.831-7.169-16-16-16zM432 32c8.831 0 16-7.169 16-16v-32c0-8.831-7.169-16-16-16H16C7.169-32 0-24.831 0-16v32c0 8.831 7.169 16 16 16zm3.17 384c7.076 0 12.83-5.744 12.83-12.82v-38.36c0-7.076-5.744-12.82-12.82-12.82H172.82c-7.076 0-12.82 5.744-12.82 12.82v38.36c0 7.076 5.744 12.82 12.82 12.82zm0-256c7.076 0 12.83-5.744 12.83-12.82v-38.36c0-7.076-5.744-12.82-12.82-12.82H172.82c-7.076 0-12.82 5.744-12.82 12.82v38.36c0 7.076 5.744 12.82 12.82 12.82z"/><glyph glyph-name="align-justify" unicode="" horiz-adv-x="448" d="M432 32c8.831 0 16-7.169 16-16v-32c0-8.831-7.169-16-16-16H16C7.169-32 0-24.831 0-16v32c0 8.831 7.169 16 16 16zm0 128c8.831 0 16-7.169 16-16v-32c0-8.831-7.169-16-16-16H16c-8.831 0-16 7.169-16 16v32c0 8.831 7.169 16 16 16zm0 128c8.831 0 16-7.169 16-16v-32c0-8.831-7.169-16-16-16H16c-8.831 0-16 7.169-16 16v32c0 8.831 7.169 16 16 16zm0 128c8.831 0 16-7.169 16-16v-32c0-8.831-7.169-16-16-16H16c-8.831 0-16 7.169-16 16v32c0 8.831 7.169 16 16 16z"/><glyph glyph-name="list" unicode="" d="M80 80c8.831 0 16-7.169 16-16V0c0-8.831-7.169-16-16-16H16C7.169-16 0-8.831 0 0v64c0 8.831 7.169 16 16 16zm0 320c8.831 0 16-7.169 16-16v-64c0-8.831-7.169-16-16-16H16c-8.831 0-16 7.169-16 16v64c0 8.831 7.169 16 16 16zm0-160c8.831 0 16-7.169 16-16v-64c0-8.831-7.169-16-16-16H16c-8.831 0-16 7.169-16 16v64c0 8.831 7.169 16 16 16zM496 64c8.831 0 16-7.169 16-16V16c0-8.831-7.169-16-16-16H176c-8.831 0-16 7.169-16 16v32c0 8.831 7.169 16 16 16zm0 320c8.831 0 16-7.169 16-16v-32c0-8.831-7.169-16-16-16H176c-8.831 0-16 7.169-16 16v32c0 8.831 7.169 16 16 16zm0-160c8.831 0 16-7.169 16-16v-32c0-8.831-7.169-16-16-16H176c-8.831 0-16 7.169-16 16v32c0 8.831 7.169 16 16 16z"/><glyph glyph-name="outdent" unicode="" horiz-adv-x="448" d="m100.69 84.71-96 95.98a15.96 15.96 0 0 0-4.686 11.312c0 4.414 1.791 8.412 4.686 11.308l96 96c9.98 10 27.31 3.01 27.31-11.31V96.02c0-14.24-17.31-21.31-27.31-11.31M432 32c8.831 0 16-7.169 16-16v-32c0-8.831-7.169-16-16-16H16C7.169-32 0-24.831 0-16v32c0 8.831 7.169 16 16 16zm3.17 128c7.076 0 12.83-5.744 12.83-12.82v-38.36c0-7.076-5.744-12.82-12.82-12.82H204.82c-7.076 0-12.82 5.744-12.82 12.82v38.36c0 7.076 5.744 12.82 12.82 12.82zm0 128c7.076 0 12.83-5.744 12.83-12.82v-38.36c0-7.076-5.744-12.82-12.82-12.82H204.82c-7.076 0-12.82 5.744-12.82 12.82v38.36c0 7.076 5.744 12.82 12.82 12.82zM432 416c8.831 0 16-7.169 16-16v-32c0-8.831-7.169-16-16-16H16c-8.831 0-16 7.169-16 16v32c0 8.831 7.169 16 16 16z"/><glyph glyph-name="indent" unicode="" horiz-adv-x="448" d="M27.31 84.7C17.33 74.7 0 81.69 0 96v192c0 14.22 17.27 21.34 27.31 11.32l96-96c2.894-2.896 4.685-6.9 4.685-11.312s-1.79-8.412-4.685-11.308zM432 32c8.831 0 16-7.169 16-16v-32c0-8.831-7.169-16-16-16H16C7.169-32 0-24.831 0-16v32c0 8.831 7.169 16 16 16zm3.17 128c7.076 0 12.83-5.744 12.83-12.82v-38.36c0-7.076-5.744-12.82-12.82-12.82H204.82c-7.076 0-12.82 5.744-12.82 12.82v38.36c0 7.076 5.744 12.82 12.82 12.82zm0 128c7.076 0 12.83-5.744 12.83-12.82v-38.36c0-7.076-5.744-12.82-12.82-12.82H204.82c-7.076 0-12.82 5.744-12.82 12.82v38.36c0 7.076 5.744 12.82 12.82 12.82zM432 416c8.831 0 16-7.169 16-16v-32c0-8.831-7.169-16-16-16H16c-8.831 0-16 7.169-16 16v32c0 8.831 7.169 16 16 16z"/><glyph glyph-name="video" unicode="" horiz-adv-x="576" d="M336.2 384c26.4 0 47.8-21.4 47.8-47.8V47.8C384 21.4 362.6 0 336.2 0H47.8C21.4 0 0 21.4 0 47.8v288.4C0 362.6 21.4 384 47.8 384zm189.4-37.7c21.3 14.6 50.4-.4 50.4-25.8V63.6c0-25.5-29.2-40.4-50.4-25.8L416 113.3v157.4z"/><glyph glyph-name="image" unicode="" d="M464 0H48C21.49 0 0 21.49 0 48v288c0 26.51 21.49 48 48 48h416c26.51 0 48-21.49 48-48V48c0-26.51-21.49-48-48-48M112 328c-30.928 0-56-25.072-56-56s25.072-56 56-56 56 25.072 56 56-25.072 56-56 56M64 64h384v112l-87.515 87.515c-4.686 4.686-12.284 4.686-16.971 0L208 128l-55.515 55.514c-4.686 4.687-12.284 4.687-16.972 0L64 112z"/><glyph glyph-name="map-marker" unicode="" horiz-adv-x="384" d="M172.268-53.67C26.97 156.97 0 178.587 0 256c0 106.04 85.96 192 192 192s192-85.96 192-192c0-77.413-26.97-99.031-172.268-309.67-9.535-13.774-29.93-13.773-39.465 0z"/><glyph glyph-name="adjust" unicode="" d="M8 192c0 136.967 111.034 248 248 248s248-111.034 248-248S392.967-56 256-56 8 55.034 8 192M256 8c101.689 0 184 82.295 184 184 0 101.689-82.295 184-184 184z"/><glyph glyph-name="tint" unicode="" horiz-adv-x="352" d="M205.22 425.91C252.21 267.43 352 225.84 352 114.09 352 15.65 273.28-64 176-64S0 15.65 0 114.09c0 111.19 100.01 154.061 146.78 311.82 9 30.12 50.5 28.78 58.44 0M176 0c8.84 0 16 7.16 16 16s-7.16 16-16 16c-44.11 0-80 35.89-80 80 0 8.84-7.16 16-16 16s-16-7.16-16-16C64 50.25 114.25 0 176 0"/><glyph glyph-name="edit" unicode="" horiz-adv-x="576" d="m402.6 364.8 90.2-90.2c3.8-3.8 3.8-10 0-13.8L274.401 42.401l-92.8-10.3c-12.4-1.4-22.9 9.1-21.5 21.5l10.3 92.8 218.4 218.399c3.799 3.8 10 3.8 13.799 0m162 22.9c15.2-15.2 15.2-39.9 0-55.2l-35.4-35.4c-3.8-3.8-10-3.8-13.8 0l-90.2 90.2c-3.8 3.8-3.8 10 0 13.8l35.4 35.4c15.3 15.2 40 15.2 55.2 0zM384 101.8c0 3.2 1.3 6.2 3.5 8.5l40 40c7.6 7.5 20.5 2.2 20.5-8.5V-16c0-26.5-21.5-48-48-48H48C21.5-64 0-42.5 0-16v352c0 26.5 21.5 48 48 48h285.8c10.7 0 16.1-12.9 8.5-20.5l-40-40c-2.3-2.2-5.3-3.5-8.5-3.5H64V0h320z"/><glyph glyph-name="step-backward" unicode="" horiz-adv-x="448" d="M64-20v424c0 6.6 5.4 12 12 12h48c6.6 0 12-5.4 12-12V227.6l195.5 181c20.6 17.1 52.5 2.8 52.5-24.6V0c0-27.4-31.9-41.7-52.5-24.6L136 155.3V-20c0-6.6-5.4-12-12-12H76c-6.6 0-12 5.4-12 12"/><glyph glyph-name="fast-backward" unicode="" d="M0 12v360c0 6.6 5.4 12 12 12h40c6.6 0 12-5.4 12-12V220.1l171.5 156.5c20.6 17.1 52.5 2.8 52.5-24.6V220.1l171.5 156.5c20.6 17.101 52.5 2.801 52.5-24.6V32c0-27.4-31.9-41.7-52.5-24.599L288 162.701v-130.7c0-27.4-31.9-41.7-52.5-24.6L64 162.702v-150.7c0-6.599-5.4-12-12-12H12c-6.6 0-12 5.401-12 12z"/><glyph glyph-name="backward" unicode="" d="M11.5 167.4c-15.3 12.8-15.3 36.4 0 49.2l192 160c20.6 17.2 52.5 2.8 52.5-24.6V32c0-27.4-31.9-41.8-52.5-24.6zm256 0c-15.3 12.8-15.3 36.4 0 49.2l192 160c20.6 17.2 52.5 2.8 52.5-24.6V32c0-27.4-31.9-41.8-52.5-24.6z"/><glyph glyph-name="play" unicode="" horiz-adv-x="448" d="M424.4 233.3c31.5-18.5 31.4-64.1 0-82.6l-352-208C40.7-76.1 0-53.5 0-16v416.1c0 41.801 43.8 58.2 72.4 41.301z"/><glyph glyph-name="pause" unicode="" horiz-adv-x="448" d="M144-31H48C21.5-31 0-9.5 0 17v352c0 26.5 21.5 48 48 48h96c26.5 0 48-21.5 48-48V17c0-26.5-21.5-48-48-48m304 48c0-26.5-21.5-48-48-48h-96c-26.5 0-48 21.5-48 48v352c0 26.5 21.5 48 48 48h96c26.5 0 48-21.5 48-48z"/><glyph glyph-name="stop" unicode="" horiz-adv-x="448" d="M400 416c26.5 0 48-21.5 48-48V16c0-26.5-21.5-48-48-48H48C21.5-32 0-10.5 0 16v352c0 26.5 21.5 48 48 48z"/><glyph glyph-name="forward" unicode="" d="M500.5 216.6c15.3-12.8 15.3-36.4 0-49.2l-192-160C287.9-9.8 256 4.6 256 32v320c0 27.4 31.9 41.7 52.5 24.6zm-256 0c15.3-12.8 15.3-36.4 0-49.2l-192-160C31.9-9.8 0 4.6 0 32v320c0 27.4 31.9 41.7 52.5 24.6z"/><glyph glyph-name="fast-forward" unicode="" d="M512 372V12c0-6.6-5.4-12-12-12h-40c-6.6 0-12 5.4-12 12v151.9L276.5 7.4C255.9-9.8 224 4.6 224 32v131.9L52.5 7.4C31.9-9.8 0 4.599 0 32v320c0 27.4 31.9 41.7 52.5 24.599l171.5-155.4V352c0 27.401 31.9 41.701 52.5 24.6L448 221.2V372c0 6.6 5.4 12 12 12h40c6.6 0 12-5.4 12-12"/><glyph glyph-name="step-forward" unicode="" horiz-adv-x="448" d="M384 404V-20c0-6.6-5.4-12-12-12h-48c-6.6 0-12 5.4-12 12v176.4l-195.5-181C95.9-41.7 64-27.4 64 0v384c0 27.4 31.9 41.7 52.5 24.6L312 228.7V404c0 6.6 5.4 12 12 12h48c6.6 0 12-5.4 12-12"/><glyph glyph-name="eject" unicode="" horiz-adv-x="448" d="M448 64V0c0-17.673-14.327-32-32-32H32C14.327-32 0-17.673 0 0v64c0 17.673 14.327 32 32 32h384c17.673 0 32-14.327 32-32M48.053 128c-41.729 0-63.528 49.732-35.383 80.435l175.946 192.008c19.015 20.743 51.753 20.742 70.767 0l175.939-192.008C463.519 177.674 441.589 128 399.939 128z"/><glyph glyph-name="chevron-left" unicode="" horiz-adv-x="320" d="m34.52 208.97 194.35 194.34c9.37 9.37 24.57 9.37 33.94 0l22.67-22.67c9.36-9.36 9.37-24.52.04-33.9L131.491 192l154.02-154.75c9.34-9.38 9.32-24.54-.04-33.9L262.8-19.32c-9.37-9.37-24.57-9.37-33.94 0L34.522 175.031c-9.37 9.37-9.37 24.57 0 33.94z"/><glyph glyph-name="chevron-right" unicode="" horiz-adv-x="320" d="M285.476 175.029 91.132-19.315c-9.373-9.372-24.568-9.372-33.94 0L34.525 3.352c-9.358 9.357-9.375 24.523-.04 33.901L188.505 192 34.486 346.744c-9.335 9.38-9.318 24.544.04 33.902l22.667 22.667c9.373 9.372 24.568 9.372 33.94 0l194.343-194.344c9.373-9.372 9.373-24.568.001-33.94z"/><glyph glyph-name="plus-circle" unicode="" d="M256 440c137 0 248-111 248-248S393-56 256-56 8 55 8 192s111 248 248 248m144-276v56c0 6.6-5.4 12-12 12h-92v92c0 6.6-5.4 12-12 12h-56c-6.6 0-12-5.4-12-12v-92h-92c-6.6 0-12-5.4-12-12v-56c0-6.6 5.4-12 12-12h92V60c0-6.6 5.4-12 12-12h56c6.6 0 12 5.4 12 12v92h92c6.6 0 12 5.4 12 12"/><glyph glyph-name="minus-circle" unicode="" d="M256 440c137 0 248-111 248-248S393-56 256-56 8 55 8 192s111 248 248 248M124 152h264c6.6 0 12 5.4 12 12v56c0 6.6-5.4 12-12 12H124c-6.6 0-12-5.4-12-12v-56c0-6.6 5.4-12 12-12"/><glyph glyph-name="times-circle" unicode="" d="M256 440c137 0 248-111 248-248S393-56 256-56 8 55 8 192s111 248 248 248m121.6-313.1L312 192l65.7 65c4.7 4.7 4.7 12.3 0 17l-39.6 39.6c-4.7 4.7-12.3 4.7-17 0L256 248l-65 65.7c-4.7 4.7-12.3 4.7-17 0l-39.6-39.6c-4.7-4.7-4.7-12.3 0-17L200 192l-65.6-65c-4.7-4.7-4.7-12.3 0-17l39.5-39.6c4.7-4.7 12.3-4.7 17 0L256 136l65-65.6c4.7-4.7 12.3-4.7 17 0l39.6 39.5c4.7 4.7 4.7 12.3 0 17"/><glyph glyph-name="check-circle" unicode="" d="M504 192C504 55.033 392.967-56 256-56S8 55.033 8 192s111.033 248 248 248 248-111.033 248-248M227.314 60.686l184 184c6.247 6.248 6.247 16.38 0 22.627l-22.628 22.627c-6.247 6.25-16.379 6.25-22.628 0L216 139.881l-70.058 70.06c-6.248 6.248-16.38 6.248-22.628 0l-22.628-22.627c-6.247-6.248-6.247-16.38 0-22.628l104-104c6.249-6.248 16.38-6.248 22.629 0z"/><glyph glyph-name="question-circle" unicode="" d="M504 192C504 55.003 392.957-56 256-56S8 55.003 8 192c0 136.917 111.043 248 248 248s248-111.083 248-248M262.655 358c-54.497 0-89.255-22.957-116.549-63.758-3.536-5.286-2.354-12.415 2.715-16.258l34.698-26.31c5.205-3.947 12.621-3.008 16.665 2.122 17.864 22.658 30.113 35.797 57.304 35.797 20.428 0 45.697-13.148 45.697-32.958 0-14.976-12.362-22.667-32.533-33.976C247.127 209.472 216 193.06 216 152v-4c0-6.627 5.373-12 12-12h56c6.626 0 12 5.373 12 12v1.333c0 28.462 83.185 29.648 83.185 106.667 0 58.002-60.164 102-116.53 102M256 110c-25.365 0-46-20.635-46-46s20.635-46 46-46 46 20.636 46 46-20.635 46-46 46"/><glyph glyph-name="info-circle" unicode="" d="M256 440c136.957 0 248-111.083 248-248C504 55.003 392.957-56 256-56S8 55.003 8 192c0 136.917 111.043 248 248 248m0-110c-23.196 0-42-18.804-42-42s18.804-42 42-42 42 18.804 42 42-18.804 42-42 42m56-254v24c0 6.627-5.373 12-12 12h-12v100c0 6.627-5.373 12-12 12h-64c-6.627 0-12-5.373-12-12v-24c0-6.627 5.373-12 12-12h12v-64h-12c-6.627 0-12-5.373-12-12V76c0-6.627 5.373-12 12-12h88c6.627 0 12 5.373 12 12"/><glyph glyph-name="crosshairs" unicode="" d="M500 224c6.627 0 12-5.373 12-12v-40c0-6.627-5.373-12-12-12h-30.364C455.724 66.325 381.675-7.724 288-21.636V-52c0-6.627-5.373-12-12-12h-40c-6.627 0-12 5.373-12 12v30.364C130.325-7.724 56.276 66.324 42.364 160H11.999c-6.627 0-12 5.373-12 12v40c0 6.627 5.373 12 12 12h30.365C56.276 317.675 130.324 391.724 224 405.636V436c0 6.627 5.373 12 12 12h40c6.627 0 12-5.373 12-12v-30.364c93.674-13.912 167.724-87.96 181.636-181.636zM288 43.366C346.243 55.783 392.232 101.826 404.634 160H364c-6.627 0-12 5.373-12 12v40c0 6.627 5.373 12 12 12h40.634C392.217 282.243 346.174 328.232 288 340.634V300c0-6.627-5.373-12-12-12h-40c-6.627 0-12 5.373-12 12v40.634C165.757 328.217 119.768 282.174 107.366 224H148c6.627 0 12-5.373 12-12v-40c0-6.627-5.373-12-12-12h-40.634C119.783 101.757 165.826 55.768 224 43.366V84c0 6.627 5.373 12 12 12h40c6.627 0 12-5.373 12-12zM288 192c0-17.673-14.327-32-32-32s-32 14.327-32 32 14.327 32 32 32 32-14.327 32-32"/><glyph glyph-name="ban" unicode="" d="M256 440c136.967 0 248-111.034 248-248S392.966-56 256-56 8 55.033 8 192s111.034 248 248 248m130.108-117.892c-65.412 65.41-165.435 70.031-235.639 20.676L406.784 86.47c49.323 70.156 44.77 170.189-20.677 235.638zM125.892 61.892C191.304-3.52 291.328-8.14 361.531 41.216L105.216 297.529c-49.323-70.156-44.77-170.19 20.677-235.638z"/><glyph glyph-name="arrow-left" unicode="" horiz-adv-x="448" d="m257.5 2.9-22.2-22.2c-9.4-9.4-24.6-9.4-33.9 0L7 175c-9.4 9.4-9.4 24.6 0 33.9l194.4 194.4c9.4 9.4 24.6 9.4 33.9 0l22.2-22.2c9.5-9.5 9.3-25-.4-34.3L136.6 232H424c13.3 0 24-10.7 24-24v-32c0-13.3-10.7-24-24-24H136.6L257.1 37.2c9.8-9.3 10-24.8.4-34.3"/><glyph glyph-name="arrow-right" unicode="" horiz-adv-x="448" d="m190.5 381.1 22.2 22.2c9.4 9.4 24.6 9.4 33.9 0L441 209c9.4-9.4 9.4-24.6 0-33.9L246.6-19.3c-9.4-9.4-24.6-9.4-33.9 0L190.5 2.902c-9.5 9.5-9.3 25 .4 34.3L311.4 152H24c-13.3 0-24 10.7-24 24v32c0 13.3 10.7 24 24 24h287.4L190.9 346.8c-9.8 9.3-10 24.8-.4 34.3"/><glyph glyph-name="arrow-up" unicode="" horiz-adv-x="448" d="m34.9 158.5-22.2 22.2c-9.4 9.4-9.4 24.6 0 33.9L207 409c9.4 9.4 24.6 9.4 33.9 0l194.3-194.3c9.4-9.4 9.4-24.601 0-33.9L413 158.598c-9.5-9.5-25-9.3-34.3.4L264 279.4V-8c0-13.3-10.7-24-24-24h-32c-13.3 0-24 10.7-24 24v287.4L69.2 158.9c-9.3-9.8-24.8-10-34.3-.4"/><glyph glyph-name="arrow-down" unicode="" horiz-adv-x="448" d="m413.1 225.5 22.2-22.2c9.4-9.4 9.4-24.6 0-33.9L241-25c-9.4-9.4-24.6-9.4-33.9 0L12.7 169.4c-9.4 9.4-9.4 24.6 0 33.9l22.201 22.2c9.5 9.5 25 9.3 34.3-.4L184 104.6V392c0 13.3 10.7 24 24 24h32c13.3 0 24-10.7 24-24V104.6l114.8 120.5c9.3 9.8 24.8 10 34.3.4"/><glyph glyph-name="share" unicode="" d="M503.691 258.164c11.086-9.575 11.07-26.766 0-36.328l-176.005-152C312.299 56.546 288 67.3 288 88v87.915c-155.084-2.231-221.935-40.73-176.59-185.742 5.034-16.098-14.424-28.561-28.078-18.63C39.58 3.364 0 64.232 0 125.673 0 277.9 127.371 310.093 288 311.931v80.054c0 20.668 24.282 31.469 39.687 18.164z"/><glyph glyph-name="expand" unicode="" horiz-adv-x="448" d="M0 268v124c0 13.3 10.7 24 24 24h124c6.6 0 12-5.4 12-12v-40c0-6.6-5.4-12-12-12H64v-84c0-6.6-5.4-12-12-12H12c-6.6 0-12 5.4-12 12m288 136c0 6.6 5.4 12 12 12h124c13.3 0 24-10.7 24-24V268c0-6.6-5.4-12-12-12h-40c-6.6 0-12 5.4-12 12v84h-84c-6.6 0-12 5.4-12 12zm148-276c6.6 0 12-5.4 12-12V-8c0-13.3-10.7-24-24-24H300c-6.6 0-12 5.4-12 12v40c0 6.6 5.4 12 12 12h84v84c0 6.6 5.4 12 12 12zM160-20c0-6.6-5.4-12-12-12H24C10.7-32 0-21.3 0-8v124c0 6.6 5.4 12 12 12h40c6.6 0 12-5.4 12-12V32h84c6.6 0 12-5.4 12-12z"/><glyph glyph-name="compress" unicode="" horiz-adv-x="448" d="M436 256H312c-13.3 0-24 10.7-24 24v124c0 6.6 5.4 12 12 12h40c6.6 0 12-5.4 12-12v-84h84c6.6 0 12-5.4 12-12v-40c0-6.6-5.4-12-12-12m-276 24c0-13.3-10.7-24-24-24H12c-6.6 0-12 5.4-12 12v40c0 6.6 5.4 12 12 12h84v84c0 6.6 5.4 12 12 12h40c6.6 0 12-5.4 12-12zm0-300c0-6.6-5.4-12-12-12h-40c-6.6 0-12 5.4-12 12v84H12C5.4 64 0 69.4 0 76v40c0 6.6 5.4 12 12 12h124c13.3 0 24-10.7 24-24zm192 0c0-6.6-5.4-12-12-12h-40c-6.6 0-12 5.4-12 12v124c0 13.3 10.7 24 24 24h124c6.6 0 12-5.4 12-12V76c0-6.6-5.4-12-12-12h-84z"/><glyph glyph-name="plus" unicode="" horiz-adv-x="448" d="M416 240c17.67 0 32-14.33 32-32v-32c0-17.67-14.33-32-32-32H272V0c0-17.67-14.33-32-32-32h-32c-17.67 0-32 14.33-32 32v144H32c-17.67 0-32 14.33-32 32v32c0 17.67 14.33 32 32 32h144v144c0 17.67 14.33 32 32 32h32c17.67 0 32-14.33 32-32V240z"/><glyph glyph-name="minus" unicode="" horiz-adv-x="448" d="M416 240c17.67 0 32-14.33 32-32v-32c0-17.67-14.33-32-32-32H32c-17.67 0-32 14.33-32 32v32c0 17.67 14.33 32 32 32z"/><glyph glyph-name="asterisk" unicode="" d="M478.21 113.907c11.795-6.478 15.96-21.383 9.232-33.036l-19.48-33.741c-6.728-11.654-21.72-15.5-33.227-8.523L296 122.717l3.476-162.203C299.764-52.94 288.936-64 275.482-64H236.52c-13.455 0-24.282 11.06-23.994 24.514L216 122.718 77.265 38.606C65.76 31.63 50.766 35.476 44.04 47.13L24.559 80.87c-6.73 11.653-2.563 26.56 9.232 33.037L176 192 33.79 270.092c-11.794 6.477-15.96 21.384-9.233 33.037l19.48 33.741c6.728 11.653 21.722 15.499 33.227 8.522L216 261.282l-3.473 162.204C212.237 436.94 223.065 448 236.52 448h38.96c13.457 0 24.283-11.06 23.995-24.514L296 261.282l138.735 84.111c11.507 6.977 26.5 3.131 33.227-8.522l19.48-33.741c6.729-11.654 2.563-26.56-9.232-33.037L336 192z"/><glyph glyph-name="exclamation-circle" unicode="" d="M504 192C504 55.003 392.957-56 256-56S8 55.003 8 192c0 136.917 111.043 248 248 248s248-111.083 248-248m-248-50c-25.405 0-46-20.595-46-46s20.595-46 46-46 46 20.595 46 46-20.595 46-46 46m-43.673 165.346 7.418-136c.347-6.363 5.608-11.346 11.981-11.346h48.547c6.373 0 11.635 4.983 11.982 11.346l7.418 136c.375 6.874-5.098 12.654-11.982 12.654h-63.384c-6.883 0-12.355-5.78-11.98-12.654"/><glyph glyph-name="gift" unicode="" d="M32 0v128h192V-32H64C46.3-32 32-17.7 32 0m256-32v160h192V0c0-17.7-14.3-32-32-32zm192 320c17.7 0 32-14.3 32-32v-80c0-8.8-7.2-16-16-16H16c-8.8 0-16 7.2-16 16v80c0 17.7 14.3 32 32 32h44.1C69.8 300.1 66 313.5 66 328c0 48.5 39.5 88 88 88 41.6 0 68.5-21.3 103-68.3 34.5 47 61.4 68.3 103 68.3 48.5 0 88-39.5 88-88 0-14.5-3.9-27.9-10.1-40zm-326.1 0H240c-51.5 76.7-66.2 80-86.1 80-22.1 0-40-17.9-40-40s17.9-40 40-40m206.1 0c22.1 0 40 17.9 40 40s-17.9 40-40 40c-20.4 0-34.7-3.5-86.1-80z"/><glyph glyph-name="leaf" unicode="" horiz-adv-x="576" d="M546.2 438.3c19-42.4 29.8-94.4 29.8-144.6 0-172.4-110.5-313.2-267.5-324.601-80.9-8.6-142.5 33.3-174.9 77.2-51-42.7-70.4-87-71.9-90.6-6.8-16.2-25.4-24.1-41.8-17.3C3.6-54.9-4.2-36.3 2.4-20 26 37.9 132.6 192 384 192c8.8 0 16 7.2 16 16s-7.2 16-16 16c-130.6 0-222.7-38.8-286.5-84.5-.7 6.8-1.5 13.5-1.5 20.5 0 106 86 192 192 192h80c63.401 0 118.9 33.6 149.9 87.5 6.7 11.8 22.7 11.3 28.3-1.2"/><glyph glyph-name="fire" unicode="" horiz-adv-x="384" d="M216 424.14C216 321 384 298.29 384 128c0-105.87-86.13-192-192-192S0 22.13 0 128c0 58.67 27.8 106.84 54.57 134.96 14.96 15.73 41.43 5.2 41.43-16.5v-85.51c0-35.17 27.98-64.49 63.15-64.94C194.89 95.54 224 124.37 224 160c0 88-176 96.15-52.15 277.18 13.5 19.73 44.15 10.76 44.15-13.04"/><glyph glyph-name="eye" unicode="" horiz-adv-x="576" d="M572.52 206.6c2.214-4.378 3.46-9.39 3.46-14.626a32.2 32.2 0 0 0-3.46-14.563C518.32 71.638 410.93 0 288 0S57.71 71.59 3.48 177.4c-2.214 4.377-3.46 9.39-3.46 14.625a32.2 32.2 0 0 0 3.46 14.564C57.68 312.361 165.07 384 288 384s230.29-71.59 284.52-177.4M288 48l.07-.001c79.437 0 143.93 64.492 143.93 143.93V192c0 79.476-64.524 144-144 144s-144-64.524-144-144S208.525 48 288 48m0 240c.076 0 .16-.027.237-.027 52.863 0 95.78-42.917 95.78-95.78s-42.917-95.78-95.78-95.78-95.78 42.918-95.78 95.78c0 8.69 1.16 17.11 3.333 25.117 7.932-5.836 17.743-9.268 28.336-9.268 26.41 0 47.85 21.44 47.85 47.85a47.62 47.62 0 0 1-9.286 28.318A95.2 95.2 0 0 0 288 288"/><glyph glyph-name="eye-slash" unicode="" horiz-adv-x="640" d="M320 48c8.913.083 17.542.977 26 2.61l51.89-40.15C372.87 4 346.91 0 320 0 197.07 0 89.71 71.59 35.48 177.4c-2.214 4.378-3.46 9.39-3.46 14.626a32.2 32.2 0 0 0 3.46 14.563c10.24 20 22.93 38.29 36.72 55.59l104.899-81.069c5.65-74.4 67.05-133.11 142.9-133.11zm313.82-58.1a15.97 15.97 0 0 0 6.177-12.647c0-3.692-1.253-7.094-3.358-9.803L617-57.82a15.97 15.97 0 0 0-12.646-6.176 15.93 15.93 0 0 0-9.813 3.366L6.18 394.1a15.97 15.97 0 0 0-6.171 12.642c0 3.694 1.255 7.098 3.361 9.807L23 441.82a15.97 15.97 0 0 0 12.647 6.177c3.697 0 7.102-1.257 9.813-3.367l127.22-98.33c43.685 23.857 94.097 37.636 147.32 37.7 122.93 0 230.29-71.59 284.52-177.4 2.214-4.377 3.461-9.39 3.461-14.626a32.2 32.2 0 0 0-3.46-14.563c-20.212-39.389-47.691-73.788-81.25-102.07zm-183.72 142c8.61 18.32 13.9 38.47 13.9 60.1l.002.08c0 79.431-64.488 143.92-143.92 143.92H320c-34.632-.026-66.475-12.49-91.15-33.11L302.46 246a46.7 46.7 0 0 1 1.54 10 47.57 47.57 0 0 1-9.31 28.21 94.6 94.6 0 0 0 26.558 3.82c52.3 0 94.761-42.46 94.761-94.76q0-.636-.009-1.27a94.8 94.8 0 0 0-5.2-29.72z"/><glyph glyph-name="exclamation-triangle" unicode="" horiz-adv-x="576" d="M569.517 7.987C587.975-24.007 564.807-64 527.941-64H48.054c-36.937 0-60 40.055-41.577 71.987l239.946 416.027c18.467 32.01 64.72 31.951 83.154 0zM288 94c-25.405 0-46-20.595-46-46s20.595-46 46-46 46 20.595 46 46-20.595 46-46 46m-43.673 165.346 7.418-136c.347-6.363 5.608-11.346 11.981-11.346h48.547c6.373 0 11.635 4.983 11.982 11.346l7.418 136c.375 6.874-5.098 12.654-11.982 12.654h-63.384c-6.883 0-12.355-5.78-11.98-12.654"/><glyph glyph-name="plane" unicode="" horiz-adv-x="576" d="M480 256c35.35 0 96-28.65 96-64s-60.65-64-96-64H365.71L260.6-55.94A16.01 16.01 0 0 0 246.71-64h-65.5c-10.63 0-18.3 10.18-15.38 20.4L214.86 128H112L68.8 70.402a15.99 15.99 0 0 0-12.8-6.4H16.01C5.6 64-2.04 73.78.492 83.88L32.001 192 .49 300.12C-2.04 310.22 5.6 320 16.01 320H56c5.03 0 9.78-2.37 12.8-6.4L112 256h102.86l-49.03 171.61c-2.92 10.22 4.75 20.39 15.38 20.39h65.5c5.95 0 11.139-3.237 13.9-8.06L365.71 256z"/><glyph glyph-name="calendar-alt" unicode="" horiz-adv-x="448" d="M0-16v272h448V-16c0-26.5-21.5-48-48-48H48C21.5-64 0-42.5 0-16m320 196v-40c0-6.6 5.4-12 12-12h40c6.6 0 12 5.4 12 12v40c0 6.6-5.4 12-12 12h-40c-6.6 0-12-5.4-12-12m0-128V12c0-6.6 5.4-12 12-12h40c6.6 0 12 5.4 12 12v40c0 6.6-5.4 12-12 12h-40c-6.6 0-12-5.4-12-12M192 180v-40c0-6.6 5.4-12 12-12h40c6.6 0 12 5.4 12 12v40c0 6.6-5.4 12-12 12h-40c-6.6 0-12-5.4-12-12m0-128V12c0-6.6 5.4-12 12-12h40c6.6 0 12 5.4 12 12v40c0 6.6-5.4 12-12 12h-40c-6.6 0-12-5.4-12-12M64 180v-40c0-6.6 5.4-12 12-12h40c6.6 0 12 5.4 12 12v40c0 6.6-5.4 12-12 12H76c-6.6 0-12-5.4-12-12m0-128V12c0-6.6 5.4-12 12-12h40c6.6 0 12 5.4 12 12v40c0 6.6-5.4 12-12 12H76c-6.6 0-12-5.4-12-12m336 332c26.5 0 48-21.5 48-48v-48H0v48c0 26.5 21.5 48 48 48h48v48c0 8.8 7.2 16 16 16h32c8.8 0 16-7.2 16-16v-48h128v48c0 8.8 7.2 16 16 16h32c8.8 0 16-7.2 16-16v-48z"/><glyph glyph-name="random" unicode="" d="M504.971 88.97c9.373-9.372 9.373-24.568 0-33.94l-80-79.984c-15.01-15.01-40.97-4.49-40.97 16.97V32h-58.786c-3.46 0-6.58 1.465-8.772 3.812l-70.557 75.596 53.333 57.143L352 112h32v39.981c0 21.438 25.944 31.998 40.97 16.971zM12 272c-6.627 0-12 5.373-12 12v56c0 6.627 5.373 12 12 12h110.785c3.46 0 6.582-1.465 8.772-3.812l70.557-75.596-53.333-57.143L96 272zm372 0h-32L131.558 35.812A12 12 0 0 0 122.786 32H12C5.374 32 0 37.374 0 44v56c0 6.627 5.373 12 12 12h84l220.442 236.188a11.97 11.97 0 0 0 8.772 3.812H384v39.981c0 21.437 25.944 31.998 40.97 16.97l80-79.981c9.374-9.372 9.374-24.568 0-33.94l-80-79.985c-15.009-15.009-40.97-4.49-40.97 16.97z"/><glyph glyph-name="comment" unicode="" d="M256 416c141.4 0 256-93.1 256-208S397.4 0 256 0c-38.4 0-74.7 7.1-107.4 19.4C124-.2 74.3-32 8-32c-3.2 0-6 1.8-7.3 4.8s-.7 6.4 1.5 8.7c.5.5 42.3 45.4 54.8 95.8C21.4 113 0 158.4 0 208c0 114.9 114.6 208 256 208"/><glyph glyph-name="magnet" unicode="" d="M164.07 299.9H12c-6.623 0-12 5.377-12 12v80c0 19.868 16.13 36 36 36h104c19.87 0 36-16.132 36-36v-80l.001-.112c0-6.563-5.328-11.89-11.89-11.89zm347.93 12 .002-.01c0-6.563-5.327-11.891-11.89-11.891H348c-6.623 0-12 5.378-12 12v80c0 19.87 16.13 36 36 36h104c19.87 0 36-16.13 36-36zm-164-44h151.85c6.623 0 12.001-5.376 12.001-11.998l-.001-.103c-.2-20.2-.6-40.399 0-53.2C511.85 51.9 377.43-44.1 256.85-44.1S.1 51.9.1 202.5c.6 13 .1 31.9 0 53.3v.1c0 6.624 5.377 12 12 12H164c6.623 0 12-5.376 12-12v-52c0-127.9 160-128.1 160 0v52c0 6.624 5.377 12 12 12"/><glyph glyph-name="chevron-up" unicode="" horiz-adv-x="448" d="m240.971 317.476 194.344-194.343c9.372-9.373 9.372-24.568 0-33.94l-22.667-22.667c-9.357-9.358-24.522-9.375-33.901-.04L224 220.506 69.256 66.485c-9.38-9.335-24.544-9.318-33.902.04L12.687 89.192c-9.372 9.373-9.372 24.568 0 33.94l194.344 194.343c9.372 9.373 24.568 9.373 33.94.001"/><glyph glyph-name="chevron-down" unicode="" horiz-adv-x="448" d="M207.029 66.524 12.685 260.868c-9.372 9.373-9.372 24.569 0 33.94l22.667 22.668c9.357 9.357 24.523 9.375 33.901.04L224 163.495l154.745 154.02c9.38 9.336 24.544 9.318 33.902-.04l22.667-22.666c9.372-9.373 9.372-24.569 0-33.94L240.97 66.523c-9.373-9.372-24.569-9.372-33.942 0z"/><glyph glyph-name="retweet" unicode="" horiz-adv-x="640" d="M629.657 104.402 528.97 3.715c-9.373-9.372-24.567-9.372-33.94 0L394.342 104.402c-9.373 9.373-9.373 24.568 0 33.94l10.823 10.824c9.561 9.561 25.133 9.34 34.419-.493l40.415-42.792V288h-187.55a23.93 23.93 0 0 0-16.97 7.03l-16 16c-15.12 15.12-4.411 40.97 16.97 40.97H520c13.255 0 24-10.745 24-24V105.881l40.416 42.792c9.285 9.831 24.856 10.054 34.419.493l10.823-10.824c9.372-9.372 9.372-24.568-.001-33.94M364.519 88.971l16.001-16C395.64 57.85 384.931 32 363.55 32H120c-13.255 0-24 10.745-24 24v222.119l-40.416-42.793c-9.286-9.831-24.857-10.053-34.419-.491l-10.822 10.822c-9.373 9.372-9.373 24.567 0 33.94l100.688 100.687c9.372 9.374 24.567 9.374 33.94 0l100.687-100.686c9.374-9.372 9.374-24.567 0-33.94l-10.822-10.822c-9.562-9.563-25.133-9.34-34.419.491l-40.416 42.792V96H347.55a23.93 23.93 0 0 0 16.971-7.03z"/><glyph glyph-name="shopping-cart" unicode="" horiz-adv-x="576" d="M528.12 146.681a24 24 0 0 0-23.403-18.68H211.572l6.545-32h268.418c15.4 0 26.815-14.301 23.403-29.32l-5.518-24.275C523.112 33.332 536 14.172 536-8c0-30.927-25.073-56-56-56s-56 25.073-56 56c0 15.674 6.447 29.835 16.823 40H231.176C241.553 21.835 248 7.674 248-8c0-30.927-25.072-56-56-56s-56 25.073-56 56c0 20.779 11.325 38.9 28.13 48.566L93.884 384H24c-13.255 0-24 10.745-24 24v16c0 13.255 10.745 24 24 24h102.529c11.4 0 21.228-8.022 23.513-19.19l9.166-44.81H551.99c15.4 0 26.815-14.301 23.402-29.32z"/><glyph glyph-name="folder" unicode="" d="M464 320c26.51 0 48-21.49 48-48V48c0-26.51-21.49-48-48-48H48C21.49 0 0 21.49 0 48v288c0 26.51 21.49 48 48 48h160l64-64z"/><glyph glyph-name="folder-open" unicode="" horiz-adv-x="576" d="M572.694 155.907 500.269 31.752C489.172 12.728 468.583 0 444.99 0H45.025C26.5 0 14.96 20.093 24.293 36.093l72.424 124.155C107.816 179.272 128.405 192 152 192h399.964c18.524 0 30.065-20.093 20.731-36.093M152 224c-34.01 0-65.786-18.25-82.923-47.628L0 57.954V336c0 26.51 21.49 48 48 48h160l64-64h160c26.51 0 48-21.49 48-48v-48z"/><glyph glyph-name="chart-bar" unicode="" d="M332.8 128c-6.4 0-12.8 6.4-12.8 12.8v134.4c0 6.4 6.4 12.8 12.8 12.8h38.4c6.4 0 12.8-6.4 12.8-12.8V140.8c0-6.4-6.4-12.8-12.8-12.8zm96 0c-6.4 0-12.8 6.4-12.8 12.8v230.4c0 6.4 6.4 12.8 12.8 12.8h38.4c6.4 0 12.8-6.4 12.8-12.8V140.8c0-6.4-6.4-12.8-12.8-12.8zm-288 0c-6.4 0-12.8 6.4-12.8 12.8v70.4c0 6.4 6.4 12.8 12.8 12.8h38.4c6.4 0 12.8-6.4 12.8-12.8v-70.4c0-6.4-6.4-12.8-12.8-12.8zm96 0c-6.4 0-12.8 6.4-12.8 12.8v198.4c0 6.4 6.4 12.8 12.8 12.8h38.4c6.4 0 12.8-6.4 12.8-12.8V140.8c0-6.4-6.4-12.8-12.8-12.8zM496 64c8.84 0 16-7.16 16-16V16c0-8.84-7.16-16-16-16H32C14.33 0 0 14.33 0 32v336c0 8.84 7.16 16 16 16h32c8.84 0 16-7.16 16-16V64z"/><glyph glyph-name="camera-retro" unicode="" d="M48 416h416c26.5 0 48-21.5 48-48V16c0-26.5-21.5-48-48-48H48C21.5-32 0-10.5 0 16v352c0 26.5 21.5 48 48 48m0-32c-8.8 0-16-7.2-16-16v-10c0-3.3 2.7-6 6-6h116c3.3 0 6 2.7 6 6v20c0 3.3-2.7 6-6 6zm426-96c3.3 0 6 2.7 6 6v74c0 8.8-7.2 16-16 16H211.2c-2 0-3.9-1-5-2.7L176 336H38c-3.3 0-6-2.7-6-6v-36c0-3.3 2.7-6 6-6zM256 24c66.2 0 120 53.8 120 120s-53.8 120-120 120-120-53.8-120-120S189.8 24 256 24m0 208c48.5 0 88-39.5 88-88s-39.5-88-88-88-88 39.5-88 88 39.5 88 88 88m-48-104c8.8 0 16 7.2 16 16 0 17.6 14.4 32 32 32 8.8 0 16 7.2 16 16s-7.2 16-16 16c-35.3 0-64-28.7-64-64 0-8.8 7.2-16 16-16"/><glyph glyph-name="key" unicode="" d="M512 271.999C512 174.797 433.202 96 336 96c-11.22 0-22.19 1.062-32.827 3.07L279.16 72.054A23.92 23.92 0 0 0 261.223 64H224V24c0-13.255-10.745-24-24-24h-40v-40c0-13.255-10.745-24-24-24H24C10.745-64 0-53.255 0-40v78.06c0 6.365 2.53 12.47 7.03 16.971l161.8 161.801C163.108 234.186 160 252.729 160 272c0 97.202 78.796 176 175.998 176C433.49 448.001 512 369.49 512 272zM336 320c0-26.51 21.49-48 48-48s48 21.49 48 48-21.49 48-48 48-48-21.49-48-48"/><glyph glyph-name="cogs" unicode="" horiz-adv-x="640" d="m512.1 257-8.2-14.3c-3-5.3-9.4-7.5-15.1-5.4-11.8 4.4-22.6 10.7-32.1 18.6-4.6 3.8-5.8 10.5-2.8 15.7l8.2 14.3c-6.9 8-12.3 17.3-15.9 27.4h-16.5c-6 0-11.2 4.3-12.2 10.3-2 12-2.1 24.6 0 37.1 1 6 6.2 10.4 12.2 10.4h16.5c3.6 10.1 9 19.4 15.9 27.4l-8.2 14.3c-3 5.2-1.9 11.9 2.8 15.7 9.5 7.9 20.4 14.2 32.1 18.6 5.7 2.1 12.1-.1 15.1-5.4l8.2-14.3c10.5 1.9 21.2 1.9 31.7 0l8.2 14.3c3 5.3 9.4 7.5 15.1 5.4 11.8-4.4 22.6-10.7 32.1-18.6 4.6-3.8 5.8-10.5 2.8-15.7l-8.2-14.3c6.9-8 12.3-17.3 15.9-27.4h16.5c6 0 11.2-4.3 12.2-10.3 2-12 2.1-24.6 0-37.1-1-6-6.2-10.4-12.2-10.4h-16.5c-3.6-10.1-9-19.4-15.9-27.4l8.2-14.3c3-5.2 1.9-11.9-2.8-15.7-9.5-7.9-20.4-14.2-32.1-18.6-5.7-2.1-12.1.1-15.1 5.4l-8.2 14.3c-10.4-1.9-21.2-1.9-31.7 0m-10.5 58.8c38.5-29.6 82.4 14.3 52.8 52.8-38.5 29.7-82.4-14.3-52.8-52.8M386.3 161.9l33.7-16.8c10.1-5.8 14.5-18.1 10.5-29.1-8.9-24.2-26.4-46.4-42.6-65.8-7.4-8.9-20.2-11.1-30.3-5.3l-29.1 16.8c-16-13.7-34.6-24.6-54.9-31.7V-3.6c0-11.6-8.3-21.6-19.7-23.6-24.6-4.2-50.4-4.4-75.9 0-11.5 2-20 11.9-20 23.6V30c-20.3 7.2-38.9 18-54.9 31.7L74 45c-10-5.8-22.9-3.6-30.3 5.3C27.5 69.7 10.4 91.9 1.5 116c-4 10.9.4 23.2 10.5 29.1l33.3 16.8c-3.9 20.9-3.9 42.4 0 63.4L12 242.2c-10.1 5.8-14.6 18.1-10.5 29 8.9 24.2 26 46.4 42.2 65.8 7.4 8.9 20.2 11.1 30.3 5.3l29.1-16.8c16 13.7 34.6 24.6 54.9 31.7v33.7c0 11.5 8.2 21.5 19.6 23.5 24.6 4.2 50.5 4.4 76 .1 11.5-2 20-11.9 20-23.6v-33.6c20.3-7.2 38.9-18 54.9-31.7l29.1 16.8c10 5.8 22.9 3.6 30.3-5.3 16.2-19.4 33.2-41.6 42.1-65.8 4-10.9.1-23.2-10-29.1l-33.7-16.8c3.9-21 3.9-42.5 0-63.5m-117.6-21.1c59.2 77-28.7 164.9-105.7 105.7-59.2-77 28.7-164.9 105.7-105.7M512.1-41.9l-8.2-14.3c-3-5.3-9.4-7.5-15.1-5.4-11.8 4.4-22.6 10.7-32.1 18.6-4.6 3.8-5.8 10.5-2.8 15.7l8.2 14.3c-6.9 8-12.3 17.3-15.9 27.4h-16.5c-6 0-11.2 4.3-12.2 10.3-2 12-2.1 24.6 0 37.1 1 6 6.2 10.4 12.2 10.4h16.5c3.6 10.1 9 19.4 15.9 27.4l-8.2 14.3c-3 5.2-1.9 11.9 2.8 15.7 9.5 7.9 20.4 14.2 32.1 18.6 5.7 2.1 12.1-.1 15.1-5.4l8.2-14.3c10.5 1.9 21.2 1.9 31.7 0l8.2 14.3c3 5.3 9.4 7.5 15.1 5.4 11.8-4.4 22.6-10.7 32.1-18.6 4.6-3.8 5.8-10.5 2.8-15.7l-8.2-14.3c6.9-8 12.3-17.3 15.9-27.4h16.5c6 0 11.2-4.3 12.2-10.3 2-12 2.1-24.6 0-37.1-1-6-6.2-10.4-12.2-10.4h-16.5c-3.6-10.1-9-19.4-15.9-27.4l8.2-14.3c3-5.2 1.9-11.9-2.8-15.7-9.5-7.9-20.4-14.2-32.1-18.6-5.7-2.1-12.1.1-15.1 5.4l-8.2 14.3c-10.4-1.9-21.2-1.9-31.7 0M501.6 17c38.5-29.6 82.4 14.3 52.8 52.8C515.9 99.4 472 55.5 501.6 17"/><glyph glyph-name="comments" unicode="" horiz-adv-x="576" d="M416 256c0-88.4-93.1-160-208-160-41 0-79.1 9.3-111.3 25C74.9 108.3 44.6 96 8 96c-3.2 0-6 1.8-7.3 4.8s-.7 6.4 1.5 8.7c.3.3 22.4 24.3 35.8 54.5-23.9 26.1-38 57.7-38 92 0 88.4 93.1 160 208 160s208-71.6 208-160M538 36c13.4-30.3 35.5-54.2 35.8-54.5 2.2-2.4 2.8-5.8 1.5-8.7-1.2-2.9-4.1-4.8-7.3-4.8-36.6 0-66.9 12.3-88.7 25C447.1-22.8 409-32 368-32c-86.2 0-160.2 40.4-191.7 97.9 10.4-1.1 20.9-1.9 31.7-1.9 132.3 0 240 86.1 240 192 0 6.8-.4 13.5-1.3 20.1C522.5 252.2 576 194.9 576 128c0-34.3-14.1-66-38-92"/><glyph glyph-name="star-half" unicode="" horiz-adv-x="576" d="M288 448V8.4L157.3-60.2c-23.4-12.3-50.9 7.6-46.4 33.7l25 145.5L30.2 222c-19 18.5-8.5 50.8 17.7 54.6L194 297.8l65.3 132.4c5.901 11.899 17.3 17.8 28.7 17.8"/><glyph glyph-name="thumbtack" unicode="" horiz-adv-x="384" d="M298.028 233.733C346.018 211.42 384 171.183 384.001 120c0-13.255-10.745-24-24-24H224V-8.007a8 8 0 0 0-.845-3.578l-24-48c-2.947-5.893-11.37-5.882-14.312 0l-24 48A8 8 0 0 0 160-8.007V96H24c-13.255 0-24 10.745-24 24 0 50.74 37.465 91.18 85.971 113.733L98.207 352H56c-13.255 0-24 10.745-24 24v48c0 13.255 10.745 24 24 24h272c13.255 0 24-10.745 24-24v-48c0-13.255-10.745-24-24-24h-42.207z"/><glyph glyph-name="trophy" unicode="" horiz-adv-x="576" d="M552 384c13.3 0 24-10.7 24-24v-56c0-35.7-22.6-72.4-61.9-100.7-31.4-22.7-69.7-37.1-110-41.7C372.7 109.5 336 88 336 88V16h48c35.3 0 64-20.7 64-56v-12c0-6.6-5.4-12-12-12H140c-6.6 0-12 5.4-12 12v12c0 35.3 28.7 56 64 56h48v72s-36.7 21.5-68.1 73.6c-40.2 4.6-78.5 19-110 41.7C22.5 231.6 0 268.3 0 304v56c0 13.3 10.7 24 24 24h104v40c0 13.3 10.7 24 24 24h272c13.3 0 24-10.7 24-24v-40zM99.3 255.2c12.5-9 26.6-16.2 41.7-21.4-7 25-11.8 53.6-12.8 86.2H64v-16c0-11.6 10.9-31.2 35.3-48.8M512 304v16h-64.3c-1-32.6-5.8-61.2-12.8-86.2 15.1 5.2 29.3 12.4 41.8 21.4 17.6 12.7 35.3 32.7 35.3 48.8"/><glyph glyph-name="upload" unicode="" d="M296 64h-80c-13.3 0-24 10.7-24 24v168h-87.7c-17.8 0-26.7 21.5-14.1 34.1l152.1 152.2c7.5 7.5 19.8 7.5 27.3 0l152.2-152.2c12.6-12.6 3.7-34.1-14.1-34.1H320V88c0-13.3-10.7-24-24-24m216 8V-40c0-13.3-10.7-24-24-24H24C10.7-64 0-53.3 0-40V72c0 13.3 10.7 24 24 24h136v-8c0-30.9 25.1-56 56-56h80c30.9 0 56 25.1 56 56v8h136c13.3 0 24-10.7 24-24M388-16c0 11-9 20-20 20s-20-9-20-20 9-20 20-20 20 9 20 20m64 0c0 11-9 20-20 20s-20-9-20-20 9-20 20-20 20 9 20 20"/><glyph glyph-name="lemon" unicode="" d="M489.038 425.037c23.094-23.094 28.892-54.39 16.833-75.093-34.311-58.904 53.076-181.249-86.746-321.07S156.958-23.56 98.057-57.87c-20.703-12.059-52-6.263-75.095 16.832C-.13-17.944-5.929 13.352 6.13 34.055c34.313 58.904-53.078 181.247 86.745 321.07s262.167 52.433 321.073 86.746c20.701 12.058 51.997 6.259 75.091-16.834zm-245.157-72.559c8.572 2.144 13.783 10.83 11.642 19.402-2.143 8.574-10.828 13.786-19.404 11.643C166.317 366.07 81.901 281.573 64.476 211.88c-2.141-8.573 3.07-17.259 11.643-19.403a16 16 0 0 1 3.892-.48c7.17 0 13.695 4.853 15.512 12.123 14.55 58.203 90.17 133.811 148.357 148.357z"/></font>
</defs>
</svg>
