<svg xmlns="http://www.w3.org/2000/svg"><defs><font id="FontAwesome5Free-Regular" horiz-adv-x="512"><font-face font-family="Font Awesome 5 Free Regular" font-weight="400" units-per-em="512" panose-1="2 0 5 3 0 0 0 0 0 0" ascent="448" descent="-64" bbox="-0.0663408 -64.0662 640.004 448.1" underline-thickness="25" underline-position="-50" unicode-range="U+0020-F5C8"/><glyph glyph-name="heart" unicode="" d="M458.4 383.7c75.3-63.4 64.1-166.601 10.6-221.3L293.6-16.3c-10-10.2-23.3-15.8-37.6-15.8-14.2 0-27.6 5.7-37.6 15.9L43 162.5c-53.6 54.7-64.6 157.9 10.6 221.2 57.8 48.7 147.101 41.3 202.4-15 55.3 56.3 144.6 63.6 202.4 15m-23.6-187.5c36.2 36.9 43.8 107.7-7.3 150.8-38.7 32.6-98.7 27.9-136.5-10.6l-35-35.7-35 35.7c-37.6 38.3-97.6 43.2-136.5 10.5-51.2-43.1-43.8-113.5-7.3-150.7L252.6 17.5c2.4-2.4 4.4-2.4 6.8 0z"/><glyph glyph-name="star" unicode="" horiz-adv-x="576" d="M528.1 276.5c26.2-3.8 36.7-36.1 17.7-54.6l-105.7-103 25-145.5c4.5-26.3-23.199-45.9-46.4-33.7L288 8.4 157.3-60.3c-23.2-12.3-50.899 7.4-46.399 33.7l25 145.5-105.7 103c-19 18.5-8.5 50.8 17.7 54.6l146.1 21.3 65.3 132.4c11.8 23.9 45.7 23.6 57.4 0l65.3-132.4zM388.6 135.7l100.601 98-139 20.2-62.2 126-62.2-126-139-20.2 100.6-98-23.7-138.4 124.3 65.3 124.3-65.3z"/><glyph glyph-name="user" unicode="" horiz-adv-x="448" d="M313.6 144C387.8 144 448 83.8 448 9.6V-16c0-26.5-21.5-48-48-48H48C21.5-64 0-42.5 0-16V9.6C0 83.8 60.2 144 134.4 144c28.8 0 42.5-16 89.6-16s60.9 16 89.6 16M400-16V9.6c0 47.6-38.8 86.4-86.4 86.4-14.7 0-37.9-16-89.6-16-51.3 0-75 16-89.6 16C86.8 96 48 57.2 48 9.6V-16zM224 160c-79.5 0-144 64.5-144 144s64.5 144 144 144 144-64.5 144-144-64.5-144-144-144m0 240c-52.9 0-96-43.1-96-96s43.1-96 96-96 96 43.1 96 96-43.1 96-96 96"/><glyph glyph-name="clock" unicode="" d="M256 440c137 0 248-111 248-248S393-56 256-56 8 55 8 192s111 248 248 248m0-448c110.5 0 200 89.5 200 200s-89.5 200-200 200S56 302.5 56 192 145.5-8 256-8m61.8 104.4-84.9 61.7c-3.1 2.3-4.9 5.9-4.9 9.7V332c0 6.6 5.4 12 12 12h32c6.6 0 12-5.4 12-12V190.3l66.8-48.6c5.4-3.9 6.5-11.4 2.6-16.8L334.6 99c-3.9-5.3-11.4-6.5-16.8-2.6"/><glyph glyph-name="list-alt" unicode="" d="M464 416c26.51 0 48-21.49 48-48V16c0-26.51-21.49-48-48-48H48C21.49-32 0-10.51 0 16v352c0 26.51 21.49 48 48 48zm-6-400c3.312 0 6 2.688 6 6v340c0 3.312-2.688 6-6 6H54c-3.312 0-6-2.688-6-6V22c0-3.312 2.688-6 6-6zm-42 92V84c0-6.627-5.373-12-12-12H204c-6.627 0-12 5.373-12 12v24c0 6.627 5.373 12 12 12h200c6.627 0 12-5.373 12-12m0 96v-24c0-6.627-5.373-12-12-12H204c-6.627 0-12 5.373-12 12v24c0 6.627 5.373 12 12 12h200c6.627 0 12-5.373 12-12m0 96v-24c0-6.627-5.373-12-12-12H204c-6.627 0-12 5.373-12 12v24c0 6.627 5.373 12 12 12h200c6.627 0 12-5.373 12-12m-252-12c0-19.882-16.118-36-36-36s-36 16.118-36 36 16.118 36 36 36 36-16.118 36-36m0-96c0-19.882-16.118-36-36-36s-36 16.118-36 36 16.118 36 36 36 36-16.118 36-36m0-96c0-19.882-16.118-36-36-36S92 76.118 92 96s16.118 36 36 36 36-16.118 36-36"/><glyph glyph-name="flag" unicode="" d="M336.174 368c35.467 0 73.02 12.691 108.922 28.18 31.64 13.65 66.904-9.658 66.904-44.116v-239.92c0-16.195-8.154-31.305-21.713-40.163C463.711 54.617 420.218 32 361.74 32c-68.608 0-112.78 32-161.913 32C143.26 64 109.87 52.72 72 35.443V-48c0-8.837-7.163-16-16-16H40c-8.837 0-16 7.163-16 16v406.438C9.658 366.738 0 382.236 0 400c0 27.569 23.243 49.71 51.202 47.896 22.965-1.49 41.866-19.472 44.48-42.338.214-1.834.309-3.66.309-5.55 0-5.302-.86-10.405-2.45-15.176C115.957 393.517 142.96 400 174.26 400c68.609 0 112.781-32 161.913-32zM464 112v240c-31.506-14.634-84.555-32-127.826-32-59.911 0-101.968 32-161.913 32-41.437 0-80.477-16.588-102.261-32V88c31.447 14.597 84.465 24 127.826 24 59.911 0 101.968-32 161.913-32 41.437 0 80.478 16.588 102.261 32"/><glyph glyph-name="bookmark" unicode="" horiz-adv-x="384" d="M336 448c26.51 0 48-21.49 48-48V-64L192 48 0-64v464c0 26.51 21.49 48 48 48zm0-428.43v374.434a5.996 5.996 0 0 1-6 5.996H54c-3.312 0-6-2.688-6-6V19.57l144 84z"/><glyph glyph-name="image" unicode="" d="M464 384c26.51 0 48-21.49 48-48V48c0-26.51-21.49-48-48-48H48C21.49 0 0 21.49 0 48v288c0 26.51 21.49 48 48 48zm-6-336c3.312 0 6 2.688 6 6v276c0 3.312-2.688 6-6 6H54c-3.312 0-6-2.688-6-6V54c0-3.312 2.688-6 6-6zM128 296c22.09 0 40-17.91 40-40s-17.91-40-40-40-40 17.91-40 40 17.91 40 40 40M96 96v48l39.514 39.515c4.687 4.686 12.285 4.686 16.971 0L192 144l119.514 119.515c4.688 4.687 12.285 4.687 16.972 0L416 176V96z"/><glyph glyph-name="edit" unicode="" horiz-adv-x="576" d="m402.3 103.1 32 32c5 5 13.7 1.5 13.7-5.7V-16c0-26.5-21.5-48-48-48H48C21.5-64 0-42.5 0-16v352c0 26.5 21.5 48 48 48h273.5c7.1 0 10.7-8.599 5.7-13.7l-32-32c-1.5-1.5-3.5-2.3-5.7-2.3H48V-16h352V97.5c0 2.1.8 4.1 2.3 5.6m156.6 201.8L296.299 42.299l-90.4-10c-26.2-2.9-48.5 19.2-45.6 45.6l10 90.4L432.9 430.9c22.9 22.9 59.9 22.9 82.7 0l43.2-43.2c22.9-22.9 22.9-60 .1-82.8M460.1 274 402 332.1 216.2 146.2l-7.3-65.3 65.3 7.3zm64.8 79.7-43.2 43.2c-4.1 4.1-10.8 4.1-14.8 0L436 366l58.1-58.1 30.9 30.9c4 4.2 4 10.8-.1 14.9"/><glyph glyph-name="times-circle" unicode="" d="M256 440c137 0 248-111 248-248S393-56 256-56 8 55 8 192s111 248 248 248m0-448c110.5 0 200 89.5 200 200s-89.5 200-200 200S56 302.5 56 192 145.5-8 256-8m101.8 262.2L295.6 192l62.2-62.2c4.7-4.7 4.7-12.3 0-17l-22.6-22.6c-4.7-4.7-12.3-4.7-17 0L256 152.4l-62.2-62.2c-4.7-4.7-12.3-4.7-17 0l-22.6 22.6c-4.7 4.7-4.7 12.3 0 17l62.2 62.2-62.2 62.2c-4.7 4.7-4.7 12.3 0 17l22.6 22.6c4.7 4.7 12.3 4.7 17 0l62.2-62.2 62.2 62.2c4.7 4.7 12.3 4.7 17 0l22.6-22.6c4.7-4.7 4.7-12.3 0-17"/><glyph glyph-name="check-circle" unicode="" d="M256 440c136.967 0 248-111.033 248-248S392.967-56 256-56 8 55.033 8 192s111.033 248 248 248m0-48c-110.549 0-200-89.468-200-200C56 81.451 145.468-8 256-8c110.549 0 200 89.468 200 200 0 110.549-89.468 200-200 200m140.204-130.267c4.667-4.705 4.637-12.304-.067-16.972L223.547 73.557c-4.704-4.668-12.302-4.636-16.97.069l-90.78 91.515c-4.668 4.706-4.637 12.305.068 16.972l22.719 22.536c4.705 4.667 12.303 4.636 16.97-.07l59.792-60.277 141.353 140.216c4.705 4.668 12.302 4.638 16.97-.067z"/><glyph glyph-name="question-circle" unicode="" d="M256 440c136.957 0 248-111.083 248-248C504 55.003 392.957-56 256-56S8 55.003 8 192c0 136.917 111.043 248 248 248m0-448c110.569 0 200 89.47 200 200 0 110.529-89.509 200-200 200-110.528 0-200-89.505-200-200C56 81.431 145.468-8 256-8m107.244 255.2c0-67.052-72.42-68.084-72.42-92.863V148c0-6.627-5.374-12-12-12h-45.648c-6.627 0-12 5.373-12 12v8.659c0 35.745 27.1 50.034 47.579 61.516 17.561 9.844 28.324 16.54 28.324 29.579 0 17.246-22 28.693-39.784 28.693-23.189 0-33.894-10.977-48.943-29.97-4.056-5.119-11.46-6.07-16.666-2.124l-27.823 21.099c-5.107 3.872-6.25 11.065-2.644 16.363C184.846 316.51 214.94 336 261.794 336c49.07 0 101.45-38.304 101.45-88.8M298 80c0-23.16-18.84-42-42-42s-42 18.84-42 42 18.84 42 42 42 42-18.84 42-42"/><glyph glyph-name="eye" unicode="" horiz-adv-x="576" d="M288 304c.114 0 .24-.018.354-.018 61.655 0 111.71-50.055 111.71-111.71s-50.055-111.71-111.71-111.71-111.71 50.056-111.71 111.71c0 10.743 1.52 21.133 4.356 30.968a55.4 55.4 0 0 1 27-7.24c30.907 0 56 25.093 56 56a55.4 55.4 0 0 1-7.24 27 111 111 0 0 0 31.24 5m284.52-97.4c2.214-4.378 3.46-9.39 3.46-14.626a32.2 32.2 0 0 0-3.46-14.563C518.32 71.638 410.93 0 288 0S57.71 71.59 3.48 177.4c-2.214 4.377-3.46 9.39-3.46 14.625a32.2 32.2 0 0 0 3.46 14.564C57.68 312.361 165.07 384 288 384s230.29-71.59 284.52-177.4M288 48c98.66 0 189.1 55 237.93 144C477.09 281 386.66 336 288 336S98.91 281 50.07 192C98.91 103 189.349 48 288 48"/><glyph glyph-name="eye-slash" unicode="" horiz-adv-x="640" d="M634-23a15.97 15.97 0 0 0 6.004-12.509c0-3.783-1.316-7.26-3.514-10L626.49-58a15.97 15.97 0 0 0-12.502-5.994c-3.776 0-7.25 1.311-9.988 3.504L6 407a15.97 15.97 0 0 0-6.004 12.509c0 3.783 1.315 7.26 3.514 10l10 12.49a15.97 15.97 0 0 0 12.502 5.995A15.93 15.93 0 0 0 36 444.49zM296.79 301.53A111.8 111.8 0 0 0 320 304c60.48 0 109.36-47.91 111.58-107.85zm46.42-219.07A112.5 112.5 0 0 0 320 80c-60.47 0-109.35 47.91-111.58 107.84zM320 336c-19.88 0-39.28-2.8-58.22-7.1l-46.41 36.29C248.29 377 283.3 384 320 384c122.93 0 230.29-71.59 284.57-177.4 2.213-4.378 3.46-9.39 3.46-14.626a32.2 32.2 0 0 0-3.46-14.564 332.7 332.7 0 0 0-52.9-75.11l-37.74 29.5a284.5 284.5 0 0 1 44 60.2C509.09 281 418.65 336 320 336m0-288c19.89 0 39.28 2.8 58.22 7.09l46.41-36.28C391.71 7.05 356.7 0 320 0 197.08 0 89.72 71.59 35.49 177.4c-2.214 4.378-3.461 9.39-3.461 14.626a32.2 32.2 0 0 0 3.46 14.563 332.6 332.6 0 0 0 52.89 75.101l37.74-29.5A284.4 284.4 0 0 1 82.07 192C130.92 103 221.35 48 320 48"/><glyph glyph-name="calendar-alt" unicode="" horiz-adv-x="448" d="M148 160h-40c-6.6 0-12 5.4-12 12v40c0 6.6 5.4 12 12 12h40c6.6 0 12-5.4 12-12v-40c0-6.6-5.4-12-12-12m108 12c0-6.6-5.4-12-12-12h-40c-6.6 0-12 5.4-12 12v40c0 6.6 5.4 12 12 12h40c6.6 0 12-5.4 12-12zm96 0c0-6.6-5.4-12-12-12h-40c-6.6 0-12 5.4-12 12v40c0 6.6 5.4 12 12 12h40c6.6 0 12-5.4 12-12zm-96-96c0-6.6-5.4-12-12-12h-40c-6.6 0-12 5.4-12 12v40c0 6.6 5.4 12 12 12h40c6.6 0 12-5.4 12-12zm-96 0c0-6.6-5.4-12-12-12h-40c-6.6 0-12 5.4-12 12v40c0 6.6 5.4 12 12 12h40c6.6 0 12-5.4 12-12zm192 0c0-6.6-5.4-12-12-12h-40c-6.6 0-12 5.4-12 12v40c0 6.6 5.4 12 12 12h40c6.6 0 12-5.4 12-12zm96 260V-16c0-26.5-21.5-48-48-48H48C21.5-64 0-42.5 0-16v352c0 26.5 21.5 48 48 48h48v52c0 6.6 5.4 12 12 12h40c6.6 0 12-5.4 12-12v-52h128v52c0 6.6 5.4 12 12 12h40c6.6 0 12-5.4 12-12v-52h48c26.5 0 48-21.5 48-48M400-10v298H48V-10c0-3.3 2.7-6 6-6h340c3.3 0 6 2.7 6 6"/><glyph glyph-name="comment" unicode="" d="M256 416c141.4 0 256-93.1 256-208S397.4 0 256 0c-32.8 0-64 5.2-92.9 14.3C134-6.3 85.5-32 24-32c-9.6 0-18.3 5.7-22.1 14.5s-2 19 4.6 26C7 8.9 38 42.3 52.9 81.7 19.9 116.8 0 160.4 0 208c0 114.9 114.6 208 256 208m0-368c114.7 0 208 71.8 208 160s-93.3 160-208 160S48 296.2 48 208c0-42.2 21.7-74.1 39.8-93.4l20.6-21.8-10.6-28.1c-5.5-14.5-12.6-28.1-19.9-40.2 23.6 7.6 43.2 18.9 57.5 29l19.5 13.8 22.7-7.2c25.3-8 51.7-12.1 78.4-12.1"/><glyph glyph-name="folder" unicode="" d="M464 320c26.51 0 48-21.49 48-48V48c0-26.51-21.49-48-48-48H48C21.49 0 0 21.49 0 48v288c0 26.51 21.49 48 48 48h146.74a32 32 0 0 0 22.63-9.37L272 320zm0-272v224H265.38a32 32 0 0 0-22.63 9.37L188.12 336H48V48z"/><glyph glyph-name="folder-open" unicode="" horiz-adv-x="576" d="M527.9 224c37.7 0 60.7-41.5 40.7-73.4l-79.9-128A47.98 47.98 0 0 0 448 0H48C21.5 0 0 21.5 0 48v288c0 26.5 21.5 48 48 48h160l64-64h160c26.5 0 48-21.5 48-48v-48zM48 330V96.6l62.9 104.2c8.7 14.4 24.3 23.2 41.1 23.2h280v42c0 3.3-2.7 6-6 6H252.1l-64 64H54c-3.3 0-6-2.7-6-6M448 48l80 128H149.2L72 48z"/><glyph glyph-name="chart-bar" unicode="" d="M396.8 96c-6.4 0-12.8 6.4-12.8 12.8v230.4c0 6.4 6.4 12.8 12.8 12.8h22.4c6.4 0 12.8-6.4 12.8-12.8V108.8c0-6.4-6.4-12.8-12.8-12.8zm-192 0c-6.4 0-12.8 6.4-12.8 12.8v198.4c0 6.4 6.4 12.8 12.8 12.8h22.4c6.4 0 12.8-6.4 12.8-12.8V108.8c0-6.4-6.4-12.8-12.8-12.8zm96 0c-6.4 0-12.8 6.4-12.8 12.8v134.4c0 6.4 6.4 12.8 12.8 12.8h22.4c6.4 0 12.8-6.4 12.8-12.8V108.8c0-6.4-6.4-12.8-12.8-12.8zM496 48c8.84 0 16-7.16 16-16V16c0-8.84-7.16-16-16-16H32C14.33 0 0 14.33 0 32v336c0 8.84 7.16 16 16 16h16c8.84 0 16-7.16 16-16V48zM108.8 96c-6.4 0-12.8 6.4-12.8 12.8v70.4c0 6.4 6.4 12.8 12.8 12.8h22.4c6.4 0 12.8-6.4 12.8-12.8v-70.4c0-6.4-6.4-12.8-12.8-12.8z"/><glyph glyph-name="comments" unicode="" horiz-adv-x="576" d="M532 61.8C547.3 31.1 569.4 7.3 569.8 7c6.3-6.7 8-16.5 4.4-25-3.7-8.5-12-14-21.2-14-53.6 0-96.7 20.3-125.2 38.8-19-4.4-39-6.8-59.8-6.8-86.2 0-159.9 40.4-191.3 97.8-9.7 1.2-19.2 2.8-28.4 4.9-28.5-18.6-71.7-38.8-125.2-38.8-9.2 0-17.6 5.5-21.2 14-3.7 8.5-1.9 18.3 4.4 25 .4.4 22.4 24.2 37.7 54.9C16.5 185 0 219 0 256c0 88.4 93.1 160 208 160 86.3 0 160.3-40.5 191.8-98.1C499.5 306.1 576 240 576 160c0-37.1-16.5-71.1-44-98.2m-392.8 92.3 19.8-4.5c16-3.7 32.5-5.6 49-5.6 86.7 0 160 51.3 160 112s-73.3 112-160 112S48 316.7 48 256c0-28.7 16.2-50.6 29.7-64l24.8-24.5L87 136.4c-2.6-5.1-5.3-10.1-8-14.8 14.6 5.1 29 12.3 43.1 21.4zM498.3 96c13.5 13.4 29.7 35.3 29.7 64 0 49.2-48.3 91.5-112.7 106 .3-3.3.7-6.6.7-10 0-80.9-78-147.5-179.3-158.3C265.8 68.1 314 48 368 48c16.5 0 33 1.9 49 5.6l19.9 4.6L454 47.1c14.1-9.1 28.5-16.3 43.1-21.4-2.7 4.7-5.4 9.7-8 14.8l-15.5 31.1z"/><glyph glyph-name="star-half" unicode="" horiz-adv-x="576" d="M288 62.7V8.4L157.3-60.2c-23.4-12.3-50.9 7.6-46.4 33.7l25 145.5L30.2 222c-19 18.5-8.5 50.8 17.7 54.6L194 297.8l65.3 132.4c5.901 11.9 17.3 17.8 28.7 17.8v-68.1l-62.2-126-139-20.2 100.602-98-23.7-138.4z"/><glyph glyph-name="lemon" unicode="" d="M484.112 420.111c28.122-28.123 35.943-68.004 19.022-97.055-23.058-39.584 50.143-163.384-82.332-295.86-132.3-132.298-256.435-59.36-295.857-82.329C95.9-72.05 56.024-64.247 27.888-36.113-.234-7.99-8.056 31.892 8.866 60.943c23.057 39.586-50.143 163.386 82.33 295.86 132.308 132.31 256.407 59.35 295.862 82.332 29.05 16.922 68.931 9.099 97.054-19.023m-22.405-72.894c13.517 23.203-27.758 63.731-50.488 50.491-66.603-38.794-165.646 45.59-286.081-74.846C4.694 202.417 89.093 103.39 50.293 36.782c-13.542-23.247 27.814-63.695 50.493-50.488 66.6 38.795 165.636-45.6 286.076 74.843 120.444 120.445 36.045 219.472 74.845 286.08m-169.861-8.736c1.37-10.96-6.403-20.957-17.364-22.327-54.847-6.856-135.78-87.787-142.636-142.636-1.373-10.988-11.399-18.733-22.327-17.364-10.96 1.37-18.734 11.365-17.364 22.326 9.162 73.285 104.167 168.215 177.364 177.364 10.953 1.368 20.956-6.403 22.326-17.363z"/><glyph glyph-name="credit-card" unicode="" horiz-adv-x="576" d="M527.9 416c26.6 0 48.1-21.5 48.1-48V16c0-26.5-21.5-48-48.1-48H48.099c-26.6 0-48.1 21.5-48.1 48v352c0 26.5 21.5 48 48.1 48zM54.1 368c-3.3 0-6-2.7-6-6v-42h479.8v42c0 3.3-2.7 6-6 6zM521.9 16c3.3 0 6 2.7 6 6v170H48.099V22c0-3.3 2.7-6 6-6zM192 116V76c0-6.6-5.4-12-12-12h-72c-6.6 0-12 5.4-12 12v40c0 6.6 5.4 12 12 12h72c6.6 0 12-5.4 12-12m192 0V76c0-6.6-5.4-12-12-12H236c-6.6 0-12 5.4-12 12v40c0 6.6 5.4 12 12 12h136c6.6 0 12-5.4 12-12"/><glyph glyph-name="hdd" unicode="" horiz-adv-x="576" d="M567.403 212.358A48 48 0 0 0 576 184.946V48c0-26.51-21.49-48-48-48H48C21.49 0 0 21.49 0 48v136.946a47.93 47.93 0 0 0 8.596 27.412l105.08 151.053C122.35 375.879 136.756 384 153.081 384h269.838c16.325 0 30.73-8.121 39.404-20.589zM153.081 336 75.168 224h425.664l-77.913 112zM528 48v128H48V48zm-32 64c0-17.673-14.327-32-32-32s-32 14.327-32 32 14.327 32 32 32 32-14.327 32-32m-96 0c0-17.673-14.327-32-32-32s-32 14.327-32 32 14.327 32 32 32 32-14.327 32-32"/><glyph glyph-name="hand-point-right" unicode="" d="M428.8 310.4c45.1 0 83.2-38.102 83.2-83.2 0-45.616-37.764-83.2-83.2-83.2h-35.648a93.8 93.8 0 0 0-7.93-22.065c2.507-22.006-3.502-44.977-15.984-62.79C368.098 6.657 331.84-32 269.298-32h-21.299c-60.063 0-98.511 40-127.2 40h-2.679C112.373 3.047 104.584 0 96 0H32C14.327 0 0 12.893 0 28.8v230.4C0 275.105 14.327 288 32 288h64.001c8.584 0 16.373-3.049 22.12-8h2.68c6.963 0 14.862 6.193 30.18 23.668l.13.149.13.145c8.857 9.937 18.117 20.84 25.851 33.253 18.705 30.247 30.394 78.784 75.707 78.784 56.928 0 92-35.286 92-83.2v.008c0-7.666-.748-15.158-2.176-22.407zm0-118.4c18.976 0 35.2 16.225 35.2 35.2 0 18.7-16.775 35.2-35.2 35.2H270.401c0 17.325 26.4 35.2 26.4 70.4 0 26.4-20.626 35.2-44 35.2-8.795 0-20.445-32.712-34.926-56.1-9.075-14.575-19.525-27.225-30.8-39.875-16.109-18.374-33.835-36.632-59.074-39.596V55.676C170.79 51.913 202.509 16 248 16h21.298c40.525 0 57.124 22.197 50.601 61.325 14.611 8.001 24.151 33.979 12.925 53.625 19.365 18.225 17.787 46.381 4.95 61.05zM88 64c0 13.255-10.745 24-24 24S40 77.255 40 64s10.745-24 24-24 24 10.745 24 24"/><glyph glyph-name="hand-point-left" unicode="" d="M0 227.2c0 45.099 38.1 83.2 83.2 83.2h86.176a115.5 115.5 0 0 0-2.176 22.4c0 47.914 35.073 83.2 92 83.2 45.314 0 57.002-48.537 75.706-78.785 7.735-12.412 16.995-23.316 25.85-33.253l.132-.146.129-.148C376.338 286.193 384.237 280 391.2 280h2.679c5.747 4.952 13.536 8 22.12 8h64c17.673 0 32-12.894 32-28.8V28.8C512 12.894 497.672 0 480 0h-64c-8.584 0-16.373 3.048-22.12 8h-2.68C362.512 8 324.064-32 264-32h-21.299c-62.542 0-98.8 38.658-99.94 91.145-12.481 17.813-18.492 40.785-15.984 62.79a93.8 93.8 0 0 0-7.93 22.065H83.2C37.765 144 0 181.584 0 227.2m48 0c0-18.976 16.225-35.2 35.2-35.2h91.025c-12.837-14.67-14.415-42.825 4.95-61.05-11.226-19.646-1.687-45.624 12.925-53.625C185.577 38.197 202.177 16 242.7 16H264c45.491 0 77.21 35.913 120 39.677v176.752c-25.24 2.962-42.966 21.222-59.075 39.596-11.275 12.65-21.725 25.3-30.799 39.875-14.481 23.388-26.132 56.1-34.926 56.1-23.375 0-44-8.8-44-35.2 0-35.2 26.4-53.075 26.4-70.4H83.2c-18.424 0-35.2-16.5-35.2-35.2M448 88c-13.255 0-24-10.745-24-24s10.745-24 24-24 24 10.745 24 24-10.745 24-24 24"/><glyph glyph-name="hand-point-up" unicode="" horiz-adv-x="448" d="M105.6 364.8c0 45.1 38.102 83.2 83.2 83.2 45.616 0 83.2-37.764 83.2-83.2v-35.646a93.8 93.8 0 0 0 22.065-7.93c22.006 2.507 44.977-3.503 62.79-15.985C409.343 304.1 448 267.841 448 205.3V184c0-60.063-40-98.511-40-127.2v-2.678c4.953-5.748 8-13.537 8-22.12v-64c0-17.673-12.893-32-28.8-32H156.8c-15.906 0-28.8 14.327-28.8 32v64c0 8.583 3.049 16.372 8 22.12V56.8c0 6.964-6.193 14.863-23.668 30.182l-.149.129-.145.13c-9.937 8.857-20.84 18.117-33.253 25.851C48.538 131.797.001 143.486.001 188.8c0 56.928 35.286 92 83.2 92h-.008c7.666 0 15.158-.748 22.407-2.176zm118.4 0c0 18.976-16.225 35.2-35.2 35.2-18.7 0-35.2-16.775-35.2-35.2V206.401c-17.325 0-35.2 26.4-70.4 26.4-26.4 0-35.2-20.626-35.2-44 0-8.795 32.712-20.445 56.1-34.926 14.575-9.075 27.225-19.525 39.875-30.8 18.374-16.109 36.632-33.835 39.596-59.074h176.753C364.087 106.79 400 138.509 400 184v21.298c0 40.525-22.197 57.124-61.325 50.601-8.001 14.611-33.979 24.151-53.625 12.925-18.225 19.365-46.381 17.787-61.05 4.95zM352 24c-13.255 0-24-10.745-24-24s10.745-24 24-24 24 10.745 24 24-10.745 24-24 24"/><glyph glyph-name="hand-point-down" unicode="" horiz-adv-x="448" d="M188.8-64c-45.099 0-83.2 38.1-83.2 83.2v86.176a115.5 115.5 0 0 0-22.4-2.176c-47.914 0-83.2 35.073-83.2 92 0 45.314 48.537 57.002 78.785 75.707 12.413 7.735 23.316 16.995 33.253 25.85l.146.132.148.129C129.807 312.338 136 320.238 136 327.2v2.679c-4.952 5.747-8 13.536-8 22.12v64c0 17.673 12.894 32 28.8 32h230.4c15.906 0 28.8-14.327 28.8-32v-64.001c0-8.584-3.048-16.373-8-22.12V327.2c0-28.688 40-67.137 40-127.2v-21.299c0-62.542-38.658-98.8-91.145-99.94-17.813-12.481-40.785-18.492-62.79-15.984A93.8 93.8 0 0 0 272 54.847V19.2c0-45.435-37.584-83.2-83.2-83.2m0 48C207.776-16 224 .225 224 19.2v91.025c14.67-12.837 42.825-14.415 61.05 4.95 19.647-11.226 45.624-1.687 53.625 12.925C377.803 121.577 400 138.177 400 178.7V200c0 45.491-35.913 77.21-39.677 120H183.571c-2.962-25.24-21.222-42.966-39.596-59.075-12.65-11.275-25.3-21.725-39.875-30.799C80.712 215.645 48 203.994 48 195.2c0-23.375 8.8-44 35.2-44 35.2 0 53.075 26.4 70.4 26.4V19.2C153.6.777 170.1-16 188.8-16M328 384c0-13.255 10.745-24 24-24s24 10.745 24 24-10.745 24-24 24-24-10.745-24-24"/><glyph glyph-name="copy" unicode="" horiz-adv-x="448" d="M433.941 382.059c8.688-8.688 14.059-20.694 14.059-33.94V80c0-26.51-21.49-48-48-48h-80v-48c0-26.51-21.49-48-48-48H48C21.49-64 0-42.51 0-16v320c0 26.51 21.49 48 48 48h80v48c0 26.51 21.49 48 48 48h172.118c13.246 0 25.252-5.37 33.94-14.059zM266-16c3.312 0 6 2.688 6 6v42h-96c-26.51 0-48 21.49-48 48v224H54c-3.312 0-6-2.688-6-6V-10c0-3.312 2.688-6 6-6zm128 96c3.312 0 6 2.688 6 6v202h-88c-13.255 0-24 10.745-24 24v88H182c-3.312 0-6-2.688-6-6V86c0-3.312 2.688-6 6-6zm6 256v9.632a5.98 5.98 0 0 1-1.757 4.243l-48.368 48.368a6 6 0 0 1-4.243 1.757H336v-64z"/><glyph glyph-name="save" unicode="" horiz-adv-x="448" d="M433.941 318.059c8.688-8.688 14.059-20.694 14.059-33.94V16c0-26.51-21.49-48-48-48H48C21.49-32 0-10.51 0 16v352c0 26.51 21.49 48 48 48h268.118c13.246 0 25.252-5.37 33.94-14.059zM272 368H144v-80h128zM394 16c3.312 0 6 2.688 6 6v259.632a5.98 5.98 0 0 1-1.757 4.243L320 364.118V264c0-13.255-10.745-24-24-24H120c-13.255 0-24 10.745-24 24v104H54c-3.312 0-6-2.688-6-6V22c0-3.311 2.688-6 6-6zM224 216c48.523 0 88-39.477 88-88s-39.477-88-88-88-88 39.477-88 88 39.477 88 88 88m0-128c22.056 0 40 17.944 40 40s-17.944 40-40 40-40-17.944-40-40 17.944-40 40-40"/><glyph glyph-name="square" unicode="" horiz-adv-x="448" d="M400 416c26.5 0 48-21.5 48-48V16c0-26.5-21.5-48-48-48H48C21.5-32 0-10.5 0 16v352c0 26.5 21.5 48 48 48zm-6-400c3.3 0 6 2.7 6 6v340c0 3.3-2.7 6-6 6H54c-3.3 0-6-2.7-6-6V22c0-3.3 2.7-6 6-6z"/><glyph glyph-name="envelope" unicode="" d="M464 384c26.51 0 48-21.49 48-48V48c0-26.51-21.49-48-48-48H48C21.49 0 0 21.49 0 48v288c0 26.51 21.49 48 48 48zm0-48H48v-40.805c22.425-18.262 58.18-46.66 134.587-106.49 16.834-13.242 50.205-45.076 73.413-44.7 23.212-.372 56.572 31.453 73.413 44.7 76.42 59.84 112.165 88.23 134.587 106.49zM48 48h416v185.601c-22.915-18.252-55.419-43.87-104.947-82.652C336.509 133.2 298.717 95.77 256 96c-42.928-.231-81.205 37.75-103.062 54.956C103.408 189.74 70.914 215.35 48 233.602z"/><glyph glyph-name="lightbulb" unicode="" horiz-adv-x="352" d="M176 368c8.84 0 16-7.16 16-16s-7.16-16-16-16c-35.28 0-64-28.7-64-64 0-8.84-7.16-16-16-16s-16 7.16-16 16c0 52.94 43.06 96 96 96M96.06-11.17l-.04 43.18h159.96l-.05-43.18a16.1 16.1 0 0 0-2.68-8.84l-24.51-36.84a15.98 15.98 0 0 0-13.32-7.14h-78.85c-5.35 0-10.35 2.68-13.32 7.14L98.74-20.01a15.9 15.9 0 0 0-2.68 8.84M176 448c97.2 0 176-78.8 176-176 0-44.37-16.45-84.85-43.55-115.79-16.64-18.98-42.74-58.79-52.42-92.16V64h-48v.1c.005 4.981.79 9.788 2.22 14.3 5.68 17.99 22.99 64.85 62.1 109.46A127.6 127.6 0 0 1 304 272c0 70.58-57.42 128-128 128-68.28 0-128.15-54.36-127.95-128 .09-30.99 11.07-60.71 31.61-84.14 39.35-44.9 56.58-91.86 62.17-109.67 1.43-4.56 2.14-9.3 2.15-14.07V64h-48v.06c-9.68 33.36-35.78 73.17-52.42 92.16C16.45 187.15 0 227.63 0 272c0 93.03 73.72 176 176 176"/><glyph glyph-name="bell" unicode="" horiz-adv-x="448" d="M439.39 85.71c6-6.44 8.66-14.16 8.61-21.71-.1-16.4-12.98-32-32.1-32H32.1C12.98 32 .11 47.6 0 64c-.05 7.55 2.61 15.26 8.61 21.71C27.93 106.47 64.08 137.7 64.08 240c0 77.7 54.48 139.9 127.94 155.16V416c0 17.67 14.32 32 31.98 32s31.98-14.33 31.98-32v-20.84C329.44 379.9 383.92 317.7 383.92 240c0-102.3 36.15-133.53 55.469-154.29zM67.53 80h312.94c-21.22 27.96-44.42 74.32-44.53 159.42 0 .2.06.38.06.58 0 61.86-50.14 112-112 112s-112-50.14-112-112c0-.2.06-.38.06-.58-.11-85.09-23.31-131.45-44.53-159.42M224-64c-35.32 0-63.97 28.65-63.97 64h127.94c0-35.35-28.65-64-63.97-64"/><glyph glyph-name="hospital" unicode="" horiz-adv-x="448" d="M128 204v40c0 6.627 5.373 12 12 12h40c6.627 0 12-5.373 12-12v-40c0-6.627-5.373-12-12-12h-40c-6.627 0-12 5.373-12 12m140-12c-6.627 0-12 5.373-12 12v40c0 6.627 5.373 12 12 12h40c6.627 0 12-5.373 12-12v-40c0-6.627-5.373-12-12-12zm-76-84c0-6.627-5.373-12-12-12h-40c-6.627 0-12 5.373-12 12v40c0 6.627 5.373 12 12 12h40c6.627 0 12-5.373 12-12zm76-12c-6.627 0-12 5.373-12 12v40c0 6.627 5.373 12 12 12h40c6.627 0 12-5.373 12-12v-40c0-6.627-5.373-12-12-12zM448-28v-36H0v36c0 6.627 5.373 12 12 12h19.5v378.965c0 11.617 10.745 21.035 24 21.035H144v40c0 13.255 10.745 24 24 24h112c13.255 0 24-10.745 24-24v-40h88.5c13.255 0 24-9.418 24-21.035V-16H436c6.627 0 12-5.373 12-12M79.5-15H192v67c0 6.627 5.373 12 12 12h40c6.627 0 12-5.373 12-12v-67h112.5v351H304v-24c0-13.255-10.745-24-24-24H168c-13.255 0-24 10.745-24 24v24H79.5zM266 384h-26v26c0 3.312-2.688 6-6 6h-20c-3.312 0-6-2.688-6-6v-26h-26c-3.312 0-6-2.688-6-6v-20c0-3.312 2.688-6 6-6h26v-26c0-3.312 2.688-6 6-6h20c3.312 0 6 2.688 6 6v26h26c3.312 0 6 2.688 6 6v20c0 3.312-2.688 6-6 6"/><glyph glyph-name="plus-square" unicode="" horiz-adv-x="448" d="M352 208v-32c0-6.6-5.4-12-12-12h-88V76c0-6.6-5.4-12-12-12h-32c-6.6 0-12 5.4-12 12v88h-88c-6.6 0-12 5.4-12 12v32c0 6.6 5.4 12 12 12h88v88c0 6.6 5.4 12 12 12h32c6.6 0 12-5.4 12-12v-88h88c6.6 0 12-5.4 12-12m96 160V16c0-26.5-21.5-48-48-48H48C21.5-32 0-10.5 0 16v352c0 26.5 21.5 48 48 48h352c26.5 0 48-21.5 48-48M400 22v340c0 3.3-2.7 6-6 6H54c-3.3 0-6-2.7-6-6V22c0-3.3 2.7-6 6-6h340c3.3 0 6 2.7 6 6"/><glyph glyph-name="circle" unicode="" d="M256 440c137 0 248-111 248-248S393-56 256-56 8 55 8 192s111 248 248 248m0-448c110.5 0 200 89.5 200 200s-89.5 200-200 200S56 302.5 56 192 145.5-8 256-8"/><glyph glyph-name="smile" unicode="" horiz-adv-x="496" d="M248 440c137 0 248-111 248-248S385-56 248-56 0 55 0 192s111 248 248 248m0-448c110.3 0 200 89.7 200 200s-89.7 200-200 200S48 302.3 48 192 137.7-8 248-8m-80 216c-17.7 0-32 14.3-32 32s14.3 32 32 32 32-14.3 32-32-14.3-32-32-32m160 0c-17.7 0-32 14.3-32 32s14.3 32 32 32 32-14.3 32-32-14.3-32-32-32m4-72.6c8.5 10.2 23.7 11.5 33.8 3.1 10.2-8.5 11.6-23.6 3.1-33.8-30-36-74.1-56.6-120.9-56.6s-90.9 20.6-120.9 56.6c-8.399 10.2-7.1 25.3 3.101 33.8 10.1 8.4 25.3 7.1 33.8-3.1 20.8-25.1 51.5-39.4 84-39.4s63.2 14.4 84 39.4z"/><glyph glyph-name="frown" unicode="" horiz-adv-x="496" d="M248 440c137 0 248-111 248-248S385-56 248-56 0 55 0 192s111 248 248 248m0-448c110.3 0 200 89.7 200 200s-89.7 200-200 200S48 302.3 48 192 137.7-8 248-8m-80 216c-17.7 0-32 14.3-32 32s14.3 32 32 32 32-14.3 32-32-14.3-32-32-32m160 64c17.7 0 32-14.3 32-32s-14.3-32-32-32-32 14.3-32 32 14.3 32 32 32m-80-128c40.2 0 78-17.7 103.8-48.6 8.4-10.2 7.1-25.3-3.1-33.8-10.7-8.8-25.7-6.6-33.8 3.1-16.6 20-41 31.4-66.9 31.4s-50.3-11.5-66.9-31.4c-8.5-10.2-23.6-11.5-33.8-3.1-10.2 8.5-11.6 23.6-3.1 33.8C170 126.3 207.8 144 248 144"/><glyph glyph-name="meh" unicode="" horiz-adv-x="496" d="M248 440c137 0 248-111 248-248S385-56 248-56 0 55 0 192s111 248 248 248m0-448c110.3 0 200 89.7 200 200s-89.7 200-200 200S48 302.3 48 192 137.7-8 248-8m-80 216c-17.7 0-32 14.3-32 32s14.3 32 32 32 32-14.3 32-32-14.3-32-32-32m160 64c17.7 0 32-14.3 32-32s-14.3-32-32-32-32 14.3-32 32 14.3 32 32 32m8-144c13.2 0 24-10.8 24-24s-10.8-24-24-24H160c-13.2 0-24 10.8-24 24s10.8 24 24 24z"/><glyph glyph-name="keyboard" unicode="" horiz-adv-x="576" d="M528 384c26.51 0 48-21.49 48-48V48c0-26.51-21.49-48-48-48H48C21.49 0 0 21.49 0 48v288c0 26.51 21.49 48 48 48zm8-336v288c0 4.411-3.589 8-8 8H48c-4.411 0-8-3.589-8-8V48c0-4.411 3.589-8 8-8h480c4.411 0 8 3.589 8 8M170 178c0-6.627-5.373-12-12-12h-28c-6.627 0-12 5.373-12 12v28c0 6.627 5.373 12 12 12h28c6.627 0 12-5.373 12-12zm96 0c0-6.627-5.373-12-12-12h-28c-6.627 0-12 5.373-12 12v28c0 6.627 5.373 12 12 12h28c6.627 0 12-5.373 12-12zm96 0c0-6.627-5.373-12-12-12h-28c-6.627 0-12 5.373-12 12v28c0 6.627 5.373 12 12 12h28c6.627 0 12-5.373 12-12zm96 0c0-6.627-5.373-12-12-12h-28c-6.627 0-12 5.373-12 12v28c0 6.627 5.373 12 12 12h28c6.627 0 12-5.373 12-12zM122 96c0-6.627-5.373-12-12-12H82c-6.627 0-12 5.373-12 12v28c0 6.627 5.373 12 12 12h28c6.627 0 12-5.373 12-12zm384 0c0-6.627-5.373-12-12-12h-28c-6.627 0-12 5.373-12 12v28c0 6.627 5.373 12 12 12h28c6.627 0 12-5.373 12-12zM122 260c0-6.627-5.373-12-12-12H82c-6.627 0-12 5.373-12 12v28c0 6.627 5.373 12 12 12h28c6.627 0 12-5.373 12-12zm96 0c0-6.627-5.373-12-12-12h-28c-6.627 0-12 5.373-12 12v28c0 6.627 5.373 12 12 12h28c6.627 0 12-5.373 12-12zm96 0c0-6.627-5.373-12-12-12h-28c-6.627 0-12 5.373-12 12v28c0 6.627 5.373 12 12 12h28c6.627 0 12-5.373 12-12zm96 0c0-6.627-5.373-12-12-12h-28c-6.627 0-12 5.373-12 12v28c0 6.627 5.373 12 12 12h28c6.627 0 12-5.373 12-12zm96 0c0-6.627-5.373-12-12-12h-28c-6.627 0-12 5.373-12 12v28c0 6.627 5.373 12 12 12h28c6.627 0 12-5.373 12-12zm-98-158c0-6.627-5.373-12-12-12H180c-6.627 0-12 5.373-12 12v16c0 6.627 5.373 12 12 12h216c6.627 0 12-5.373 12-12z"/><glyph glyph-name="calendar" unicode="" horiz-adv-x="448" d="M400 384c26.5 0 48-21.5 48-48V-16c0-26.5-21.5-48-48-48H48C21.5-64 0-42.5 0-16v352c0 26.5 21.5 48 48 48h48v52c0 6.6 5.4 12 12 12h40c6.6 0 12-5.4 12-12v-52h128v52c0 6.6 5.4 12 12 12h40c6.6 0 12-5.4 12-12v-52zm-6-400c3.3 0 6 2.7 6 6v298H48V-10c0-3.3 2.7-6 6-6z"/><glyph glyph-name="play-circle" unicode="" d="M371.7 210c16.4-9.2 16.4-32.9 0-42l-176-101c-15.9-8.8-35.7 2.6-35.7 21v208c0 18.5 19.9 29.8 35.7 21zM504 192C504 55 393-56 256-56S8 55 8 192s111 248 248 248 248-111 248-248m-448 0C56 81.5 145.5-8 256-8s200 89.5 200 200-89.5 200-200 200S56 302.5 56 192"/><glyph glyph-name="minus-square" unicode="" horiz-adv-x="448" d="M108 164c-6.6 0-12 5.4-12 12v32c0 6.6 5.4 12 12 12h232c6.6 0 12-5.4 12-12v-32c0-6.6-5.4-12-12-12zm340 204V16c0-26.5-21.5-48-48-48H48C21.5-32 0-10.5 0 16v352c0 26.5 21.5 48 48 48h352c26.5 0 48-21.5 48-48M400 22v340c0 3.3-2.7 6-6 6H54c-3.3 0-6-2.7-6-6V22c0-3.3 2.7-6 6-6h340c3.3 0 6 2.7 6 6"/><glyph glyph-name="check-square" unicode="" horiz-adv-x="448" d="M400 416c26.51 0 48-21.49 48-48V16c0-26.51-21.49-48-48-48H48C21.49-32 0-10.51 0 16v352c0 26.51 21.49 48 48 48zm0-400v352H48V16zm-35.864 241.724L191.547 86.52c-4.705-4.667-12.303-4.637-16.97.068l-90.78 91.516c-4.668 4.705-4.638 12.304.068 16.972l22.72 22.536c4.704 4.667 12.302 4.636 16.969-.07l59.792-60.277 141.353 140.217c4.705 4.667 12.303 4.637 16.97-.068l22.536-22.718c4.667-4.706 4.636-12.305-.069-16.972"/><glyph glyph-name="share-square" unicode="" horiz-adv-x="576" d="M561.938 289.94c18.75-18.74 18.75-49.14 0-67.88l-143.998-144C387.967 48.085 336 69.005 336 112v53.8c-101.266-7.838-99.625-31.641-84.11-78.76 14.228-43.09-33.474-79.249-71.02-55.74C129.177 63.604 96 114.362 96 176.06c0 39.34 12.22 72.74 36.33 99.3 19.84 21.84 47.74 38.47 82.91 49.42 36.73 11.44 78.31 16.11 120.76 17.99v57.198c0 42.935 51.926 63.954 81.94 33.94zM384 112l144 144-144 144V295.91c-110.86-.903-240-10.517-240-119.851 0-52.14 32.79-85.61 62.31-104.06-39.818 120.65 48.999 141.918 177.69 143.84zm24.74-84.493a83 83 0 0 1 20.974 9.303C437.69 41.762 448 35.984 448 26.596V-16c0-26.51-21.49-48-48-48H48C21.49-64 0-42.51 0-16v352c0 26.51 21.49 48 48 48h132c6.627 0 12-5.373 12-12v-4.486c0-4.917-2.988-9.37-7.57-11.152-13.702-5.33-26.395-11.537-38.05-18.585A12.1 12.1 0 0 0 140.1 336H54c-3.312 0-6-2.689-6-6V-10c0-3.312 2.688-6 6-6h340c3.311 0 6 2.688 6 6v25.966c0 5.37 3.579 10.06 8.74 11.54z"/><glyph glyph-name="compass" unicode="" horiz-adv-x="496" d="M347.94 318.14c16.66 7.61 33.81-9.54 26.2-26.2L308.17 147.6a31.93 31.93 0 0 0-15.77-15.77L148.059 65.86c-16.66-7.61-33.81 9.55-26.2 26.2l65.97 144.34a31.93 31.93 0 0 0 15.77 15.77zm-77.36-148.72c12.47 12.47 12.47 32.69 0 45.16s-32.69 12.47-45.16 0-12.47-32.69 0-45.16 32.69-12.47 45.16 0M248 440c136.97 0 248-111.03 248-248S384.97-56 248-56 0 55.03 0 192s111.03 248 248 248m0-448c110.28 0 200 89.72 200 200s-89.72 200-200 200S48 302.28 48 192 137.72-8 248-8"/><glyph glyph-name="caret-square-down" unicode="" horiz-adv-x="448" d="M125.1 240h197.801c10.7 0 16.1-13 8.5-20.5l-98.9-98.3c-4.7-4.7-12.2-4.7-16.9 0l-98.9 98.3c-7.7 7.5-2.3 20.5 8.4 20.5zM448 368V16c0-26.5-21.5-48-48-48H48C21.5-32 0-10.5 0 16v352c0 26.5 21.5 48 48 48h352c26.5 0 48-21.5 48-48M400 22v340c0 3.3-2.7 6-6 6H54c-3.3 0-6-2.7-6-6V22c0-3.3 2.7-6 6-6h340c3.3 0 6 2.7 6 6"/><glyph glyph-name="caret-square-up" unicode="" horiz-adv-x="448" d="M322.9 144H125.099c-10.7 0-16.1 13-8.5 20.5l98.9 98.3c4.7 4.7 12.2 4.7 16.9 0l98.9-98.3c7.7-7.5 2.3-20.5-8.4-20.5zM448 368V16c0-26.5-21.5-48-48-48H48C21.5-32 0-10.5 0 16v352c0 26.5 21.5 48 48 48h352c26.5 0 48-21.5 48-48M400 22v340c0 3.3-2.7 6-6 6H54c-3.3 0-6-2.7-6-6V22c0-3.3 2.7-6 6-6h340c3.3 0 6 2.7 6 6"/><glyph glyph-name="caret-square-right" unicode="" horiz-adv-x="448" d="M176 93.1v197.8c0 10.7 13 16.1 20.5 8.5l98.3-98.9c4.7-4.7 4.7-12.2 0-16.9l-98.3-98.9C189 77 176 82.4 176 93.1M448 368V16c0-26.5-21.5-48-48-48H48C21.5-32 0-10.5 0 16v352c0 26.5 21.5 48 48 48h352c26.5 0 48-21.5 48-48M400 22v340c0 3.3-2.7 6-6 6H54c-3.3 0-6-2.7-6-6V22c0-3.3 2.7-6 6-6h340c3.3 0 6 2.7 6 6"/><glyph glyph-name="file" unicode="" horiz-adv-x="384" d="M369.9 350.1c9-9 14.1-21.3 14.1-34V-16c0-26.5-21.5-48-48-48H48C21.5-64 0-42.5 0-16v416c0 26.5 21.5 48 48 48.1h204.1c12.7 0 24.9-5.1 33.9-14.1zM332.1 320 256 396.1V320zM48-16h288v288H232c-13.3 0-24 10.7-24 24v104H48z"/><glyph glyph-name="file-alt" unicode="" horiz-adv-x="384" d="M288 200v-28c0-6.6-5.4-12-12-12H108c-6.6 0-12 5.4-12 12v28c0 6.6 5.4 12 12 12h168c6.6 0 12-5.4 12-12m-12-72c6.6 0 12-5.4 12-12V88c0-6.6-5.4-12-12-12H108c-6.6 0-12 5.4-12 12v28c0 6.6 5.4 12 12 12zm108 188.1V-16c0-26.5-21.5-48-48-48H48C21.5-64 0-42.5 0-16v416c0 26.5 21.5 48 48 48h204.1c12.7 0 24.9-5.1 33.9-14.1l83.9-83.9c9-8.9 14.1-21.2 14.1-33.9m-128 80V320h76.1zM336-16v288H232c-13.3 0-24 10.7-24 24v104H48V-16z"/><glyph glyph-name="thumbs-up" unicode="" d="M466.27 161.31c4.675-22.646.864-44.537-8.99-62.99 2.96-23.867-4.02-48.565-17.34-66.99C438.988-24.576 404.119-64 327-64c-7 0-15 .01-22.219.01-102.742 0-133.293 38.94-177.803 39.94C123.408-37.825 110.893-48 96.001-48H32C14.328-48 0-33.673 0-16v240c0 17.673 14.327 32 32 32h98.76c19.145 16.953 46.013 60.654 68.76 83.4 13.666 13.668 10.153 108.6 71.76 108.6 57.58 0 95.27-31.935 95.27-104.73 0-18.408-3.93-33.729-8.85-46.538h36.48c48.602 0 85.82-41.566 85.82-85.58 0-19.15-4.96-34.99-13.73-49.841zm-61.75-53.83c21.581 20.384 18.7 51.065 5.21 65.62 9.45 0 22.36 18.91 22.27 37.81-.09 18.91-16.71 37.82-37.82 37.82H290.191c0 37.82 28.36 55.369 28.36 94.539 0 23.75 0 56.73-47.27 56.73-18.91-18.91-9.46-66.18-37.82-94.54C206.9 278.89 167.28 208 138.92 208H128V21.83c53.611 0 100-37.82 171.64-37.82h37.82c35.512 0 60.82 17.12 53.12 65.9 15.2 8.16 26.5 36.44 13.94 57.57M88 16c0 13.255-10.745 24-24 24S40 29.255 40 16 50.745-8 64-8 88 2.745 88 16"/><glyph glyph-name="thumbs-down" unicode="" d="M466.27 222.69C475.04 207.84 480 192 480 172.85c0-44.015-37.217-85.58-85.82-85.58H357.7c4.92-12.81 8.85-28.13 8.85-46.54C366.55-32.065 328.86-64 271.28-64c-61.607 0-58.093 94.933-71.76 108.6-22.746 22.747-49.613 66.447-68.76 83.4h-7.051c-5.534-9.561-15.867-16-27.708-16H32c-17.673 0-32 14.328-32 32v240c0 17.673 14.327 32 32 32h64c8.113 0 15.514-3.025 21.155-8H128c40.997 0 73.195 39.99 176.78 39.99 7.22 0 15.22.01 22.22.01 77.116 0 111.985-39.423 112.94-95.33 13.318-18.425 20.297-43.122 17.34-66.99 9.853-18.452 13.663-40.343 8.988-62.99zM64 152c13.255 0 24 10.745 24 24s-10.745 24-24 24-24-10.745-24-24 10.745-24 24-24m330.18-16.73c21.11 0 37.73 18.91 37.82 37.82.09 18.9-12.82 37.81-22.27 37.81 13.49 14.555 16.37 45.236-5.21 65.62 12.56 21.13 1.26 49.41-13.94 57.57 7.7 48.78-17.608 65.9-53.12 65.9h-37.82c-71.639 0-118.028-37.82-171.64-37.82V176h10.92c28.36 0 67.98-70.89 94.54-97.46C261.82 50.18 252.37 2.91 271.28-16c47.27 0 47.27 32.98 47.27 56.73 0 39.17-28.36 56.72-28.36 94.54z"/><glyph glyph-name="sun" unicode="" d="M494.2 226.1c11.2-7.6 17.8-20.1 17.9-33.7 0-13.4-6.7-26-17.8-33.5l-59.8-40.5 13.7-71c2.5-13.2-1.6-26.8-11.1-36.3S414.2-2.7 400.8 0l-70.9 13.7-40.4-59.9C282-57.3 269.4-64 256-64s-26 6.7-33.5 17.9l-40.4 59.9L111.3.1C97.9-2.5 84.5 1.7 75 11.2S61.3 34.3 63.9 47.5l13.7 71L17.8 159C6.7 166.5 0 179 0 192.5s6.6 26 17.8 33.6l59.8 40.5-13.7 71c-2.6 13.2 1.6 26.7 11.1 36.3s23 13.7 36.3 11.2l70.8-13.7 40.4 59.9c15.1 22.3 51.9 22.3 67 0l40.4-59.9 70.9 13.7c13 2.6 26.6-1.6 36.2-11.1 9.5-9.6 13.7-23.2 11.1-36.4l-13.7-71zm-112.9-85.6 76.8 52.1-76.8 52 17.6 91.1-91-17.6L256 395l-51.8-76.8-91 17.6 17.6-91.2-76.8-52 76.8-52-17.6-91.2L204.1 67 256-10l51.9 76.9 91-17.6zM256 296c57.3 0 104-46.7 104-104S313.3 88 256 88s-104 46.7-104 104 46.7 104 104 104m0-160c30.9 0 56 25.1 56 56s-25.1 56-56 56-56-25.1-56-56 25.1-56 56-56"/><glyph glyph-name="moon" unicode="" d="M279.135-64c-141.424 0-256 114.64-256 256 0 141.425 114.641 256 256 256a256.6 256.6 0 0 0 46.735-4.277c44.02-8.131 53.767-66.87 15.022-88.92-41.374-23.543-67.434-67.411-67.434-115.835 0-83.524 75.924-146.475 158.272-130.792 43.69 8.321 74.519-42.57 46.248-77.4C430.117-28.197 357.89-64 279.134-64zm0 464c-114.875 0-208-93.125-208-208s93.125-208 208-208c65.231 0 123.439 30.036 161.575 77.024-111.611-21.256-215.252 64.096-215.252 177.943 0 67.513 36.933 126.392 91.693 157.555A209 209 0 0 1 279.135 400"/><glyph glyph-name="caret-square-left" unicode="" horiz-adv-x="448" d="M272 290.9V93.099c0-10.7-13-16.1-20.5-8.5l-98.3 98.9c-4.7 4.7-4.7 12.2 0 16.9l98.3 98.9c7.5 7.7 20.5 2.3 20.5-8.4zM448 368V16c0-26.5-21.5-48-48-48H48C21.5-32 0-10.5 0 16v352c0 26.5 21.5 48 48 48h352c26.5 0 48-21.5 48-48M400 22v340c0 3.3-2.7 6-6 6H54c-3.3 0-6-2.7-6-6V22c0-3.3 2.7-6 6-6h340c3.3 0 6 2.7 6 6"/><glyph glyph-name="dot-circle" unicode="" d="M256 392c-110.549 0-200-89.468-200-200C56 81.451 145.468-8 256-8c110.549 0 200 89.468 200 200 0 110.549-89.468 200-200 200m0 48c136.967 0 248-111.033 248-248S392.967-56 256-56 8 55.033 8 192s111.033 248 248 248m0-168c44.183 0 80-35.817 80-80s-35.817-80-80-80-80 35.817-80 80 35.817 80 80 80"/><glyph glyph-name="building" unicode="" horiz-adv-x="448" d="M128 300v40c0 6.6 5.4 12 12 12h40c6.6 0 12-5.4 12-12v-40c0-6.6-5.4-12-12-12h-40c-6.6 0-12 5.4-12 12m140-12c-6.6 0-12 5.4-12 12v40c0 6.6 5.4 12 12 12h40c6.6 0 12-5.4 12-12v-40c0-6.6-5.4-12-12-12zm-128-96c-6.6 0-12 5.4-12 12v40c0 6.6 5.4 12 12 12h40c6.6 0 12-5.4 12-12v-40c0-6.6-5.4-12-12-12zm128 0c-6.6 0-12 5.4-12 12v40c0 6.6 5.4 12 12 12h40c6.6 0 12-5.4 12-12v-40c0-6.6-5.4-12-12-12zm-76-84c0-6.6-5.4-12-12-12h-40c-6.6 0-12 5.4-12 12v40c0 6.6 5.4 12 12 12h40c6.6 0 12-5.4 12-12zm76-12c-6.6 0-12 5.4-12 12v40c0 6.6 5.4 12 12 12h40c6.6 0 12-5.4 12-12v-40c0-6.6-5.4-12-12-12zM448-28v-36H0v36c0 6.6 5.4 12 12 12h19.5v440c0 13.3 10.7 24 24 24h337c13.3 0 24-10.7 24-24V-16H436c6.6 0 12-5.4 12-12M79.5-15H192v67c0 6.6 5.4 12 12 12h40c6.6 0 12-5.4 12-12v-67h112.5v414L80 400z"/><glyph glyph-name="file-pdf" unicode="" horiz-adv-x="384" d="M369.9 350.1c9-9 14.1-21.3 14.1-34V-16c0-26.5-21.5-48-48-48H48C21.5-64 0-42.5 0-16v416c0 26.5 21.5 48 48 48.1h204.1c12.7 0 24.9-5.1 33.9-14.1zM332.1 320 256 396.1V320zM48-16h288v288H232c-13.3 0-24 10.7-24 24v104H48zm250.2 143.7c10.5-10.5 8-38.7-17.5-38.7-14.8 0-36.9 6.8-55.8 17-21.6-3.6-46-12.7-68.4-20.1-50.1-86.4-79.4-47-76.1-31.2 4 20 31 35.9 51 46.2 10.5 18.4 25.4 50.5 35.4 74.4-7.4 28.6-11.4 51-7 67.1 4.8 17.7 38.4 20.3 42.6-5.9 4.7-15.4-1.5-39.9-5.4-56 8.1-21.3 19.6-35.8 36.8-46.3 17.4 2.2 52.2 5.5 64.4-6.5M100.1 49.9c0-.7 11.4 4.7 30.4 35-5.9-5.5-25.3-21.3-30.4-35m81.6 190.6c-2.5 0-2.6-26.9 1.8-40.8 4.9 8.7 5.6 40.8-1.8 40.8m-24.4-136.6c15.9 6.1 34 14.9 54.8 19.2-11.2 8.3-21.8 20.4-30.1 35.5-6.7-17.7-15-37.8-24.7-54.7m131.6 5c3.6 2.4-2.2 10.4-37.3 7.8 32.3-13.8 37.3-7.8 37.3-7.8"/><glyph glyph-name="file-word" unicode="" horiz-adv-x="384" d="M369.9 350.1c9-9 14.1-21.3 14.1-34V-16c0-26.5-21.5-48-48-48H48C21.5-64 0-42.5 0-16v416c0 26.5 21.5 48 48 48.1h204.1c12.7 0 24.9-5.1 33.9-14.1zM332.1 320 256 396.1V320zM48-16h288v288H232c-13.3 0-24 10.7-24 24v104H48zm220.1 208v.2h15.8c7.8 0 13.5-7.3 11.6-14.9-4.3-17-13.7-54.1-34.5-136-1.3-5.4-6.1-9.1-11.6-9.1h-24.7c-5.5 0-10.3 3.8-11.6 9.1-5.3 20.9-17.8 71-17.9 71.4l-2.9 17.3c-.5-5.3-1.5-11.1-3-17.3l-17.9-71.4c-1.3-5.4-6.1-9.1-11.6-9.1h-25.2c-5.6 0-10.4 3.7-11.7 9.1-6.5 26.5-25.2 103.4-33.2 136-1.8 7.5 3.9 14.8 11.7 14.8h16.8c5.8 0 10.7-4.1 11.8-9.7 5-25.7 18.4-93.8 19.1-99 .3-1.7.4-3.1.5-4.2.8 7.5.4 4.7 24.8 103.7 1.4 5.3 6.2 9.1 11.7 9.1h13.3c5.6 0 10.4-3.8 11.7-9.2 23.9-99.7 22.8-94.4 23.6-99.5.3-1.7.5-3.1.7-4.3.6 8.1.4 5.8 21 103.5 1.1 5.5 6 9.5 11.7 9.5"/><glyph glyph-name="file-excel" unicode="" horiz-adv-x="384" d="M369.9 350.1c9-9 14.1-21.3 14.1-34V-16c0-26.5-21.5-48-48-48H48C21.5-64 0-42.5 0-16v416c0 26.5 21.5 48 48 48.1h204.1c12.7 0 24.9-5.1 33.9-14.1zM332.1 320 256 396.1V320zM48-16h288v288H232c-13.3 0-24 10.7-24 24v104H48zm212 240c9.2 0 15-10 10.3-18-16-27.5-45.6-76.9-46.3-78l46.4-78c4.6-8-1.1-18-10.4-18h-28.8c-4.4 0-8.5 2.4-10.6 6.3C197.9 80.1 206.9 65.8 192 96c-5.6-12.7-6.9-17.7-28.6-57.7-2.1-3.9-6.1-6.3-10.5-6.3H124c-9.3 0-15.1 10-10.4 18l46.3 78-46.3 78c-4.6 8 1.1 18 10.4 18h28.9c4.4 0 8.5-2.4 10.6-6.3 21.7-40.4 14.7-28.6 28.6-57.7 6.4 15.3 10.6 24.6 28.6 57.7 2.1 3.9 6.1 6.3 10.5 6.3z"/><glyph glyph-name="file-powerpoint" unicode="" horiz-adv-x="384" d="M369.9 350.1c9-9 14.1-21.3 14.1-34V-16c0-26.5-21.5-48-48-48H48C21.5-64 0-42.5 0-16v416c0 26.5 21.5 48 48 48.1h204.1c12.7 0 24.9-5.1 33.9-14.1zM332.1 320 256 396.1V320zM48-16h288v288H232c-13.3 0-24 10.7-24 24v104H48zm72 60v168c0 6.6 5.4 12 12 12h69.2c36.7 0 62.8-27 62.8-66.3 0-74.3-68.7-66.5-95.5-66.5V44c0-6.6-5.4-12-12-12H132c-6.6 0-12 5.4-12 12m48.5 87.4h23c7.9 0 13.9 2.4 18.1 7.2 8.5 9.8 8.4 28.5.1 37.8-4.1 4.6-9.9 7-17.4 7h-23.9v-52z"/><glyph glyph-name="file-image" unicode="" horiz-adv-x="384" d="M369.9 350.1c9-9 14.1-21.3 14.1-34V-16c0-26.5-21.5-48-48-48H48C21.5-64 0-42.5 0-16v416c0 26.5 21.5 48 48 48.1h204.1c12.7 0 24.9-5.1 33.9-14.1zM332.1 320 256 396.1V320zM48-16h288v288H232c-13.3 0-24 10.7-24 24v104H48zm32 48v64l39.5 39.5c4.7 4.7 12.3 4.7 17 0L176 96l87.5 87.5c4.7 4.7 12.3 4.7 17 0L304 160V32zm48 240c26.5 0 48-21.5 48-48s-21.5-48-48-48-48 21.5-48 48 21.5 48 48 48"/><glyph glyph-name="file-archive" unicode="" horiz-adv-x="384" d="M128.3 288h32v-32h-32zm64 96v-32h-32v32zm-64-32h32v-32h-32zm64-32v-32h-32v32zm177.6 30.1c9-9 14.1-21.3 14.1-34V-16c0-26.5-21.5-48-48-48H48C21.5-64 0-42.5 0-16v416c0 26.5 21.5 48 48 48.1h204.1c12.7 0 24.9-5.1 33.9-14.1zm-113.9 46V320h76.1zM336-16v288H232c-13.3 0-24 10.7-24 24v104h-48.3v-16h-32v16H48V-16zM194.2 182.3l17.3-87.7C217.9 62.2 193.1 32 160 32c-33.2 0-58 30.4-51.4 62.9l19.7 97.1v32h32v-32h22.1c5.8 0 10.7-4.1 11.8-9.7M160.3 57.9c17.9 0 32.4 12.1 32.4 27s-14.5 27-32.4 27-32.4-12.1-32.4-27 14.5-27 32.4-27m32 198.1v-32h-32v32z"/><glyph glyph-name="file-audio" unicode="" horiz-adv-x="384" d="M369.941 350.059c8.688-8.688 14.059-20.694 14.059-33.94V-16c0-26.51-21.49-48-48-48H48C21.49-64 0-42.51 0-16v416c0 26.51 21.49 48 48 48h204.118c13.246 0 25.252-5.37 33.94-14.059zM332.118 320 256 396.118V320zM48-16h288v288H232c-13.255 0-24 10.745-24 24v104H48zm144 76.024c0-10.691-12.926-16.045-20.485-8.485L136 87.514h-28c-6.627 0-12 5.373-12 12v56c0 6.627 5.373 12 12 12h28l35.515 36.947c7.56 7.56 20.485 2.206 20.485-8.485zm41.201 47.13c9.05 9.297 9.06 24.133.001 33.439-22.15 22.752 12.234 56.246 34.394 33.48 27.199-27.94 27.212-72.443.001-100.4-21.793-22.386-56.946 10.315-34.396 33.481"/><glyph glyph-name="file-video" unicode="" horiz-adv-x="384" d="M369.941 350.059c8.688-8.688 14.059-20.694 14.059-33.94V-16c0-26.51-21.49-48-48-48H48C21.49-64 0-42.51 0-16v416c0 26.51 21.49 48 48 48h204.118c13.246 0 25.252-5.37 33.94-14.059zM332.118 320 256 396.118V320zM48-16h288v288H232c-13.255 0-24 10.745-24 24v104H48zm228.687 211.303c10.005 10.005 27.314 2.997 27.314-11.313V72.012c0-14.293-17.296-21.332-27.314-11.313l-52.686 52.674V76c0-11.046-8.955-20-20-20H100c-11.046 0-20 8.954-20 20v104c0 11.046 8.954 20 20 20h104c11.045 0 20-8.954 20-20v-37.374z"/><glyph glyph-name="file-code" unicode="" horiz-adv-x="384" d="M149.9 98.9c3.5-3.3 3.7-8.9.4-12.4l-17.4-18.6c-1.6-1.8-4-2.8-6.4-2.8-2.2 0-4.4.9-6 2.4l-57.7 54.1c-3.7 3.4-3.7 9.3 0 12.8l57.7 54.1c3.4 3.3 9 3.2 12.4-.4l17.4-18.6.2-.2c3.2-3.6 2.8-9.2-.8-12.4L116.9 128l32.8-28.9zm220 251.2c9-9 14.1-21.3 14.1-34V-16c0-26.5-21.5-48-48-48H48C21.5-64 0-42.5 0-16v416c0 26.5 21.5 48 48 48.1h204.1c12.7 0 24.9-5.1 33.9-14.1zm-113.9 46V320h76.1zM336-16v288H232c-13.3 0-24 10.7-24 24v104H48V-16zM209.6 234l24.4-7c4.7-1.3 7.4-6.2 6-10.9L185.3 27.9c-1.3-4.6-6.2-7.4-10.9-6L150 29c-4.7 1.3-7.4 6.2-6 10.9L198.7 228c1.4 4.7 6.2 7.401 10.9 6m24.5-76.9c-3.5 3.3-3.7 8.9-.4 12.4l17.4 18.6c3.3 3.6 8.9 3.7 12.4.4l57.7-54.1c3.7-3.4 3.7-9.3 0-12.8l-57.7-54.1c-3.5-3.3-9.1-3.1-12.4.4l-17.4 18.6-.2.2c-3.2 3.6-2.8 9.2.8 12.4l32.8 28.9-32.8 28.9z"/><glyph glyph-name="life-ring" unicode="" d="M256-56C119.033-56 8 55.033 8 192s111.033 248 248 248 248-111.033 248-248S392.967-56 256-56M152.602 20.72c63.218-38.319 143.579-38.319 206.797 0l-53.411 53.41c-31.847-13.52-68.168-13.505-99.975 0zM336 192c0 44.112-35.888 80-80 80s-80-35.888-80-80 35.888-80 80-80 80 35.888 80 80m91.28-103.398c38.318 63.217 38.318 143.579 0 206.797l-53.411-53.412c13.521-31.846 13.505-68.168 0-99.974zM359.397 363.28c-63.217 38.318-143.578 38.318-206.796 0l53.411-53.411c31.846 13.521 68.167 13.505 99.974 0zM84.72 295.398c-38.32-63.218-38.32-143.579 0-206.797l53.41 53.411c-13.52 31.847-13.505 68.168 0 99.975z"/><glyph glyph-name="paper-plane" unicode="" d="M440 441.5c34.6 19.9 77.6-8.8 71.5-48.9L452.1 5.4c-2.3-14.5-11.1-27.3-23.9-34.5-7.3-4.1-15.4-6.2-23.6-6.2-6.2 0-12.4 1.2-18.3 3.6L274.4 14.5l-43.8-59.1C203.2-81.5 144-62.4 144-16v84.4L29.7 115.7c-36.8 15.1-40.1 66-5.7 85.9zM192-16l36.6 49.5L192 48.6zm212.6 28.7L464 400 48 160l107.8-44.6 211.5 184.3c14.2 12.3 34.4-5.7 23.7-21.2L250.8 76.2z"/><glyph glyph-name="futbol" unicode="" horiz-adv-x="496" d="M483.8 268.6c42.3-130.199-29-270.1-159.2-312.399-25.5-8.3-51.3-12.2-76.7-12.2C143.4-56 46.2 10.6 12.2 115.4c-42.298 130.2 29 270.1 159.2 312.4 25.5 8.3 51.3 12.2 76.7 12.2 104.5 0 201.7-66.6 235.7-171.4M409.3 74.9c6.1 8.4 12.1 16.9 16.8 26.2 14.3 28.1 21.5 58.5 21.7 89.2l-38.9 36.4-71.1-22.1-24.4-75.2 43.7-60.9zm0 235.4c-24.5 33.4-58.7 58.4-97.9 71.4L264 355.5v-73.8l64.2-46.5 70.7 22zm-224.4 71.3c-39.9-13.3-73.5-38.5-97.8-71.9l10.1-52.5 70.6-22 64.2 46.5v73.8zM139 68.5l43.5 61.7-24.3 74.3-71.1 22.2-39-36.4c.5-55.7 23.4-95.2 37.8-115.3zm48.2-67c64.1-20.4 115.5-1.8 121.7 0l22.4 48.1-44.3 61.7h-78.6l-43.6-61.7z"/><glyph glyph-name="newspaper" unicode="" horiz-adv-x="576" d="M552 384c13.255 0 24-10.745 24-24V24c0-13.255-10.745-24-24-24H56C25.072 0 0 25.072 0 56v272c0 13.255 10.745 24 24 24h42.752c6.605 18.623 24.39 32 45.248 32zM48 56c0-4.411 3.589-8 8-8s8 3.589 8 8v248H48zm480-8v288H112V56c0-2.717-.204-5.386-.578-8zM172 168c-6.627 0-12 5.373-12 12v96c0 6.627 5.373 12 12 12h136c6.627 0 12-5.373 12-12v-96c0-6.627-5.373-12-12-12zm28 80v-40h80v40zm-40-140v24c0 6.627 5.373 12 12 12h136c6.627 0 12-5.373 12-12v-24c0-6.627-5.373-12-12-12H172c-6.627 0-12 5.373-12 12m192 0v24c0 6.627 5.373 12 12 12h104c6.627 0 12-5.373 12-12v-24c0-6.627-5.373-12-12-12H364c-6.627 0-12 5.373-12 12m0 144v24c0 6.627 5.373 12 12 12h104c6.627 0 12-5.373 12-12v-24c0-6.627-5.373-12-12-12H364c-6.627 0-12 5.373-12 12m0-72v24c0 6.627 5.373 12 12 12h104c6.627 0 12-5.373 12-12v-24c0-6.627-5.373-12-12-12H364c-6.627 0-12 5.373-12 12"/><glyph glyph-name="bell-slash" unicode="" horiz-adv-x="640" d="M633.99-23.02c6.91-5.52 8.02-15.59 2.5-22.49l-10-12.49c-5.53-6.89-15.59-8.01-22.49-2.49L6 407.02c-6.9 5.52-8.02 15.59-2.49 22.49l10 12.49c5.52 6.9 15.59 8.01 22.49 2.49zM163.53 80h182.84l61.4-48H128.11c-19.12 0-31.99 15.6-32.1 32-.05 7.55 2.61 15.26 8.61 21.71 18.37 19.74 51.57 49.69 54.84 140.42l45.47-35.55c-6.92-54.78-24.69-88.55-41.4-110.58M320 352c-23.35 0-45-7.18-62.94-19.4l-38.17 29.84c19.68 15.78 43.11 27.31 69.13 32.72V416c0 17.67 14.32 32 31.98 32s31.98-14.33 31.98-32v-20.84C425.44 379.9 479.92 317.7 479.92 240c0-41.36 6.03-70.72 14.34-92.85l-59.53 46.54c-1.63 13.96-2.77 28.89-2.79 45.73 0 .2.06.38.06.58 0 61.86-50.14 112-112 112m0-416c-35.32 0-63.97 28.65-63.97 64h127.94c0-35.35-28.65-64-63.97-64"/><glyph glyph-name="copyright" unicode="" d="M256 440c136.967 0 248-111.033 248-248S392.967-56 256-56 8 55.033 8 192s111.033 248 248 248m0-448c110.549 0 200 89.468 200 200 0 110.549-89.468 200-200 200-110.549 0-200-89.469-200-200C56 81.451 145.468-8 256-8M363.351 93.065c-9.613-9.713-45.53-41.397-104.064-41.397-82.43 0-140.484 61.425-140.484 141.567 0 79.151 60.275 139.4 139.763 139.4 55.53 0 88.737-26.62 97.593-34.778a11.95 11.95 0 0 0 1.936-15.322L339.94 254.42c-3.842-5.95-11.967-7.282-17.499-2.92-8.596 6.776-31.814 22.537-61.708 22.537-48.304 0-77.916-35.33-77.916-80.082 0-41.589 26.888-83.692 78.276-83.692 32.658 0 56.843 19.039 65.727 27.226 5.27 4.856 13.596 4.039 17.82-1.739l19.865-27.17a11.9 11.9 0 0 0 2.324-7.077 11.93 11.93 0 0 0-3.477-8.44z"/><glyph glyph-name="closed-captioning" unicode="" d="M464 384c26.5 0 48-21.5 48-48V48c0-26.5-21.5-48-48-48H48C21.5 0 0 21.5 0 48v288c0 26.5 21.5 48 48 48zm-6-336c3.3 0 6 2.7 6 6v276c0 3.3-2.7 6-6 6H54c-3.3 0-6-2.7-6-6V54c0-3.3 2.7-6 6-6zm-211.1 85.7c1.7-2.4 1.5-5.6-.5-7.7-53.6-56.8-172.801-32.1-172.801 67.9 0 97.3 121.7 119.5 172.5 70.1 2.1-2 2.5-3.2 1-5.7l-17.5-30.5c-1.9-3.1-6.2-4-9.1-1.7-40.8 32-94.6 14.9-94.6-31.2 0-48 51-70.5 92.2-32.6 2.8 2.5 7.1 2.1 9.2-.9zm190.4 0c1.7-2.4 1.5-5.6-.5-7.7C383.2 69.1 264 93.9 264 193.9c0 97.3 121.7 119.5 172.5 70.1 2.1-2 2.5-3.2 1-5.7L420 227.8c-1.9-3.1-6.2-4-9.1-1.7-40.8 32-94.6 14.9-94.6-31.2 0-48 51-70.5 92.2-32.6 2.8 2.5 7.1 2.1 9.2-.9z"/><glyph glyph-name="object-group" unicode="" d="M500 320h-12V64h12c6.627 0 12-5.373 12-12v-72c0-6.627-5.373-12-12-12h-72c-6.627 0-12 5.373-12 12v12H96v-12c0-6.627-5.373-12-12-12H12C5.373-32 0-26.627 0-20v72c0 6.627 5.373 12 12 12h12v256H12c-6.627 0-12 5.373-12 12v72c0 6.627 5.373 12 12 12h72c6.627 0 12-5.373 12-12v-12h320v12c0 6.627 5.373 12 12 12h72c6.627 0 12-5.373 12-12v-72c0-6.627-5.373-12-12-12m-52 64v-32h32v32zm-416 0v-32h32v32zM64 0v32H32V0zm416 0v32h-32V0zm-40 64v256h-12c-6.627 0-12 5.373-12 12v12H96v-12c0-6.627-5.373-12-12-12H72V64h12c6.627 0 12-5.373 12-12V40h320v12c0 6.627 5.373 12 12 12zm-36 192c6.627 0 12-5.372 12-12V76c0-6.628-5.373-12-12-12H204c-6.627 0-12 5.372-12 12v52h-84c-6.627 0-12 5.372-12 12v168c0 6.628 5.373 12 12 12h200c6.627 0 12-5.372 12-12v-52zm-268 24V168h144v112zm240-176v112h-56v-76c0-6.628-5.373-12-12-12h-76v-24z"/><glyph glyph-name="object-ungroup" unicode="" horiz-adv-x="576" d="M564 224h-12V64h12c6.627 0 12-5.373 12-12v-72c0-6.627-5.373-12-12-12h-72c-6.627 0-12 5.373-12 12v12H256v-12c0-6.627-5.373-12-12-12h-72c-6.627 0-12 5.373-12 12v72c0 6.627 5.373 12 12 12h12v24H96V76c0-6.627-5.373-12-12-12H12C5.373 64 0 69.373 0 76v72c0 6.627 5.373 12 12 12h12v160H12c-6.627 0-12 5.373-12 12v72c0 6.627 5.373 12 12 12h72c6.627 0 12-5.373 12-12v-12h224v12c0 6.627 5.373 12 12 12h72c6.627 0 12-5.373 12-12v-72c0-6.627-5.373-12-12-12h-12v-24h88v12c0 6.627 5.373 12 12 12h72c6.627 0 12-5.373 12-12v-72c0-6.627-5.373-12-12-12M352 384v-32h32v32zm0-256V96h32v32zM64 96v32H32V96zm0 256v32H32v-32zm32-216h224v12c0 6.627 5.373 12 12 12h12v160h-12c-6.627 0-12 5.373-12 12v12H96v-12c0-6.627-5.373-12-12-12H72V160h12c6.627 0 12-5.373 12-12zM224 0v32h-32V0zm280 64v160h-12c-6.627 0-12 5.373-12 12v12h-88v-88h12c6.627 0 12-5.373 12-12V76c0-6.627-5.373-12-12-12h-72c-6.627 0-12 5.373-12 12v12h-88V64h12c6.627 0 12-5.373 12-12V40h224v12c0 6.627 5.373 12 12 12zm40-64v32h-32V0zm0 256v32h-32v-32z"/><glyph glyph-name="sticky-note" unicode="" horiz-adv-x="448" d="M448 99.894c0-13.245-5.37-25.252-14.059-33.94L350.06-17.93c-8.689-8.688-20.695-14.06-33.94-14.06H48c-26.51 0-48 21.491-48 48V368c0 26.51 21.49 48 48 48h352c26.51 0 48-21.49 48-48zm-128-80 76.118 76.118H320zM400 368H48V16.012h224v104c0 13.255 10.745 24 24 24h104z"/><glyph glyph-name="clone" unicode="" d="M464 448c26.51 0 48-21.49 48-48V80c0-26.51-21.49-48-48-48h-48v-48c0-26.51-21.49-48-48-48H48C21.49-64 0-42.51 0-16v320c0 26.51 21.49 48 48 48h48v48c0 26.51 21.49 48 48 48zM362-16c3.312 0 6 2.688 6 6v42H144c-26.51 0-48 21.49-48 48v224H54c-3.312 0-6-2.688-6-6V-10c0-3.312 2.688-6 6-6zm96 96c3.312 0 6 2.688 6 6v308c0 3.312-2.688 6-6 6H150c-3.312 0-6-2.688-6-6V86c0-3.312 2.688-6 6-6z"/><glyph glyph-name="hourglass" unicode="" horiz-adv-x="384" d="M368 400c0-80.1-31.898-165.619-97.18-208C335.811 149.807 368 64.564 368-16h4c6.627 0 12-5.373 12-12v-24c0-6.627-5.373-12-12-12H12C5.373-64 0-58.627 0-52v24c0 6.627 5.373 12 12 12h4c0 80.1 31.9 165.619 97.18 208C48.188 234.193 16 319.436 16 400h-4c-6.627 0-12 5.373-12 12v24c0 6.627 5.373 12 12 12h360c6.627 0 12-5.373 12-12v-24c0-6.627-5.373-12-12-12zm-304 0c0-101.621 57.307-184 128-184s128 82.38 128 184zM320-16c0 101.62-57.308 184-128 184S64 85.62 64-16z"/><glyph glyph-name="hand-rock" unicode="" d="M408.864 368.948C457.685 389.699 512 353.876 512 301.037V186.594c0-15.396-3.089-30.39-9.183-44.568L459.982 42.37C454.985 30.745 456 23.513 456 0c0-17.673-14.327-32-32-32H172c-17.673 0-32 14.327-32 32 0 27.33 1.142 29.201-3.11 32.903l-97.71 85.082C14.28 139.665 0 170.877 0 203.618v56.953C0 308 44.846 342.593 91.046 331.752c1.96 55.751 63.51 87.826 110.67 60.806 29.19 31.071 78.861 31.447 108.335-.022 32.705 18.685 76.412 10.31 98.813-23.587zM464 186.594v114.445c0 34.29-52 33.823-52 .677 0-8.836-7.163-16-16-16h-7c-8.837 0-16 7.164-16 16v26.75c0 34.458-52 33.708-52 .678v-27.43c0-8.835-7.163-16-16-16h-7c-8.837 0-16 7.165-16 16v40.467c0 34.352-52 33.811-52 .677v-41.143c0-8.836-7.164-16-16-16h-7c-8.836 0-16 7.164-16 16v26.75c0 34.403-52 33.775-52 .678V212.572c0-8.832-7.178-15.997-16.008-15.997a15.94 15.94 0 0 0-10.499 3.93l-7 6.095A15.95 15.95 0 0 0 100 218.667v41.228c0 34.215-52 33.885-52 .677V203.62c0-18.855 8.274-36.874 22.7-49.436l97.71-85.08C180.86 58.263 188 42.656 188 26.286V16h220v7.076c0 13.21 2.653 26.08 7.883 38.25l42.835 99.656A64.5 64.5 0 0 1 464 186.544z"/><glyph glyph-name="hand-paper" unicode="" horiz-adv-x="448" d="M372.57 335.359c39.906 5.633 75.43-25.74 75.43-66.36V137.437a203 203 0 0 0-5.196-45.666L412.621-39.188c-3.347-14.524-16.279-24.813-31.182-24.813H158.542c-10.754 0-20.259 5.286-26.061 13.432L12.51 117.846c-21.244 29.82-14.805 71.357 14.55 93.153 18.775 13.94 42.13 16.298 62.082 8.871V346c0 44.055 41.125 75.544 82.406 64.983 23.892 48.197 92.353 50.248 117.982.748 42.518 11.144 83.039-21.935 83.039-65.547zm27.427-197.922L399.995 269c0 24.95-36.57 25.55-36.57-.691V192c0-8.837-7.163-16-16-16h-6.857c-8.837 0-16 7.163-16 16v154.184c0 25.501-36.57 26.363-36.57.691V192c0-8.837-7.163-16-16-16h-6.856c-8.837 0-16 7.163-16 16v188.31c0 25.5-36.57 26.354-36.57.69V192c0-8.836-7.164-16-16-16h-6.857c-8.837 0-16 7.164-16 16v153.31c0 25.5-36.572 26.336-36.572.691V139.507c0-15.57-20.035-21.909-29.03-9.283l-27.128 38.08c-14.37 20.17-43.833-2.336-29.394-22.605L166.787-15.998h201.92l27.325 118.55a155.6 155.6 0 0 1 3.965 34.886z"/><glyph glyph-name="hand-scissors" unicode="" d="M256-32c-44.956 0-77.343 43.263-64.024 85.854-21.649 13.71-34.016 38.761-30.341 65.006H74c-40.804 0-74 32.81-74 73.14s33.196 73.14 74 73.14l94-9.14-78.85 18.679c-38.307 14.742-57.04 57.47-41.942 95.112 15.03 37.473 57.755 55.78 95.642 41.201l144.929-55.757c24.955 30.557 57.808 43.993 92.217 24.733l98-54.853C498.97 313.375 512 291.27 512 267.425V61.723c0-30.742-21.44-57.558-51.798-64.554L341.203-30.258A67.8 67.8 0 0 0 326-31.988zm0 48.013 70-.001c1.524 0 2.997.175 4.423.502l119 27.427C458.007 45.92 464 53.232 464 61.723v205.7c0 6.488-3.621 12.543-9.45 15.805l-98 54.855c-8.139 4.555-18.667 2.619-24.486-4.508l-21.765-26.648a15.96 15.96 0 0 0-12.4-5.873c-2.023 0-3.958.376-5.739 1.062l-166.549 64.09c-32.654 12.567-50.774-34.576-19.222-46.716l155.357-59.785c6-2.309 10.253-8.124 10.253-14.933V233.14c0-8.837-7.163-16-16-16H74c-34.375 0-34.43-50.28 0-50.28h182c8.837 0 16-7.163 16-16v-6.856c0-8.837-7.163-16-16-16h-28c-25.122 0-25.159-36.568 0-36.568h28c8.837 0 16-7.162 16-16V68.58c0-8.837-7.163-16-16-16-25.12 0-25.16-36.568 0-36.568z"/><glyph glyph-name="hand-lizard" unicode="" horiz-adv-x="576" d="M556.686 157.458a119.73 119.73 0 0 0 19.315-65.287V-32H352v71.582l-99.75 38.787a23.9 23.9 0 0 1-8.698 1.63H112c-30.879 0-56 25.122-56 56 0 48.524 39.477 88 88 88h113.71l18.332 48H80c-44.112 0-80 35.889-80 80v8c0 30.879 25.121 56 56 56h293.917c24.5 0 47.084-12.272 60.411-32.828zM528 16v76.17c0 .018-.044.107-.044.123 0 14.394-4.242 27.806-11.544 39.05L370.054 357.058A23.91 23.91 0 0 1 349.917 368H56c-4.41 0-8-3.589-8-8v-8c0-17.644 14.356-32 32-32h213.471c25.203 0 42.626-25.293 33.63-48.846l-24.551-64.28C295.496 188.406 277.476 176 257.71 176H144c-22.055 0-40-17.944-40-40 0-4.41 3.59-8 8-8h131.553c.017 0 .071-.027.089-.027a71.5 71.5 0 0 0 26.004-4.866l99.752-38.788C387.988 77.09 400 59.53 400 39.582V16z"/><glyph glyph-name="hand-spock" unicode="" d="M501.03 331.824A73 73 0 0 0 512 293.309a73.3 73.3 0 0 0-2.038-17.208L452.339 34.138C439.115-22.052 388.632-64 328.43-64H220.623l-.27.002c-40.925 0-78.148 15.981-105.761 42.039L23.226 64.017C8.92 77.461.002 96.572.002 117.734c0 19.526 7.61 37.286 20.025 50.477 5.319 5.664 29.875 29.392 68.115 21.847l-24.359 82.198c-1.974 6.648-2.977 13.683-2.977 20.969 0 38.695 29.893 70.463 67.827 73.453-.246 2.45-.341 4.855-.341 7.372 0 34.42 23.585 63.376 55.462 71.575 43.248 10.978 80.564-17.701 89.66-53.072l13.683-53.207 4.647 22.66c6.99 33.518 36.683 58.804 72.237 58.916 8.735 0 56.625-3.27 70.739-54.08 15.066.71 46.92-3.51 66.31-35.018m-37.759-44.605c7.87 32.984-42.121 45.27-50.086 11.922l-24.8-104.146c-4.39-18.414-31.779-11.893-28.056 6.217l28.548 139.166c7.398 36.07-43.308 45.07-50.119 11.963l-31.79-154.971c-3.55-17.309-28.284-18.047-32.712-.805L226.93 380.6c-8.433 32.81-58.369 20.268-49.865-12.836l42.441-165.039c4.817-18.72-23.37-26.912-28.964-8.008l-31.344 105.78c-9.688 32.646-59.12 18.257-49.387-14.626l36.014-121.539a246.5 246.5 0 0 0 10.178-70.152c0-6.543-8.057-10.936-13.483-5.826L91.397 136.46c-24.785 23.408-60.053-14.187-35.28-37.49l91.37-85.98c19.047-17.974 44.75-28.999 72.98-28.999h107.612c.073 0 .138.043.213.043 37.579 0 69.101 26.142 77.356 61.217z"/><glyph glyph-name="hand-pointer" unicode="" horiz-adv-x="448" d="M358.182 268.639C401.375 285.274 448 252.844 448 206v-84a67.7 67.7 0 0 0-1.727-15.204l-27.43-118.999C411.861-42.5 385.088-64 354.287-64H176c-21.26 0-41.369 10.41-53.791 27.846L12.51 117.847c-21.243 29.82-14.804 71.357 14.55 93.152 18.812 13.966 42.175 16.283 62.083 8.872v161.13c0 36.944 29.737 67 66.286 67s66.287-30.056 66.287-67v-73.634c20.413 2.857 41.467-3.943 56.594-19.63 27.194 12.847 60.38 5.67 79.872-19.098M80.985 168.303c-14.4 20.212-43.8-2.383-29.394-22.605l109.712-154C164.737-13.123 170.232-16 176-16h178.285c8.492 0 15.804 5.994 17.782 14.576l27.43 119.001a19.8 19.8 0 0 1 .502 4.423v84c0 25.16-36.571 25.121-36.571 0 0-8.836-7.163-16-16-16h-6.857c-8.837 0-16 7.164-16 16v21c0 25.16-36.571 25.12-36.571 0v-21c0-8.836-7.163-16-16-16h-6.86c-8.836 0-16 7.164-16 16v35c0 25.16-36.57 25.12-36.57 0v-35c0-8.836-7.163-16-16-16h-6.857c-8.837 0-16 7.164-16 16v175c0 25.16-36.571 25.12-36.571 0V139.507c0-15.57-20.036-21.909-29.03-9.283zM176.143 48v96c0 8.837 6.269 16 14 16h6c7.732 0 14-7.163 14-16V48c0-8.837-6.268-16-14-16h-6c-7.732 0-14 7.163-14 16m75.428 0v96c0 8.837 6.268 16 14 16h6c7.731 0 14-7.163 14-16V48c0-8.837-6.269-16-14-16h-6c-7.732 0-14 7.163-14 16M327 48v96c0 8.837 6.268 16 14 16h6c7.732 0 14-7.163 14-16V48c0-8.837-6.268-16-14-16h-6c-7.732 0-14 7.163-14 16"/><glyph glyph-name="hand-peace" unicode="" horiz-adv-x="448" d="M362.146 256.024C404.736 269.342 448 236.956 448 192l-.012-70.001a67.5 67.5 0 0 0-1.73-15.204L418.831-12.204C411.834-42.56 385.021-64 354.277-64H148.575c-23.845 0-45.95 13.03-57.69 34.005l-54.853 98c-19.26 34.409-5.824 67.261 24.732 92.217L5.007 305.15c-14.579 37.887 3.728 80.612 41.202 95.642 37.64 15.098 80.369-3.635 95.112-41.943L160 280l-9.14 94c0 40.805 32.809 74 73.139 74s73.14-33.195 73.14-74v-87.634c26.245 3.675 51.296-8.692 65.007-30.34zM399.987 122l-.001 70c0 25.16-36.567 25.12-36.567 0 0-8.837-7.163-16-16-16h-6.856c-8.838 0-16 7.163-16 16v28c0 25.16-36.567 25.122-36.567 0v-28c0-8.837-7.163-16-16-16h-6.857c-8.837 0-16 7.163-16 16v182c0 34.43-50.28 34.375-50.28 0V192c0-8.837-7.163-16-16-16h-11.633c-6.808 0-12.624 4.254-14.932 10.254L96.509 341.61c-12.14 31.552-59.284 13.433-46.716-19.223l64.09-166.549a16 16 0 0 0 1.078-5.741c0-4.997-2.296-9.463-5.89-12.398l-26.648-21.764c-7.127-5.82-9.064-16.347-4.507-24.487l54.853-98c3.264-5.829 9.32-9.45 15.806-9.45h205.7c8.492 0 15.804 5.995 17.782 14.577l27.428 119a19.8 19.8 0 0 1 .502 4.423z"/><glyph glyph-name="registered" unicode="" d="M256 440c136.967 0 248-111.033 248-248S392.967-56 256-56 8 55.033 8 192s111.033 248 248 248m0-448c110.549 0 200 89.468 200 200 0 110.549-89.468 200-200 200-110.549 0-200-89.469-200-200C56 81.451 145.468-8 256-8m110.442 81.791c4.403-7.992-1.37-17.791-10.51-17.791h-42.81c-.005 0-.001-.013-.006-.013-4.586 0-8.574 2.583-10.587 6.373l-47.516 89.303h-31.958V68c0-6.617-5.382-12-12-12h-38.567c-6.617 0-12 5.383-12 12v248.304c0 6.617 5.383 12 12 12h78.667c71.25 0 101.498-32.749 101.498-85.252 0-31.612-15.215-59.297-39.482-73.176 3.021-4.617.225.2 53.271-96.085M256.933 208.094c20.913 0 32.43 11.519 32.432 32.432 0 19.575-6.513 31.709-38.93 31.709h-27.377v-64.141z"/><glyph glyph-name="calendar-plus" unicode="" horiz-adv-x="448" d="M336 156v-24c0-6.6-5.4-12-12-12h-76V44c0-6.6-5.4-12-12-12h-24c-6.6 0-12 5.4-12 12v76h-76c-6.6 0-12 5.4-12 12v24c0 6.6 5.4 12 12 12h76v76c0 6.6 5.4 12 12 12h24c6.6 0 12-5.4 12-12v-76h76c6.6 0 12-5.4 12-12m112 180V-16c0-26.5-21.5-48-48-48H48C21.5-64 0-42.5 0-16v352c0 26.5 21.5 48 48 48h48v52c0 6.6 5.4 12 12 12h40c6.6 0 12-5.4 12-12v-52h128v52c0 6.6 5.4 12 12 12h40c6.6 0 12-5.4 12-12v-52h48c26.5 0 48-21.5 48-48M400-10v298H48V-10c0-3.3 2.7-6 6-6h340c3.3 0 6 2.7 6 6"/><glyph glyph-name="calendar-minus" unicode="" horiz-adv-x="448" d="M124 120c-6.6 0-12 5.4-12 12v24c0 6.6 5.4 12 12 12h200c6.6 0 12-5.4 12-12v-24c0-6.6-5.4-12-12-12zm324 216V-16c0-26.5-21.5-48-48-48H48C21.5-64 0-42.5 0-16v352c0 26.5 21.5 48 48 48h48v52c0 6.6 5.4 12 12 12h40c6.6 0 12-5.4 12-12v-52h128v52c0 6.6 5.4 12 12 12h40c6.6 0 12-5.4 12-12v-52h48c26.5 0 48-21.5 48-48M400-10v298H48V-10c0-3.3 2.7-6 6-6h340c3.3 0 6 2.7 6 6"/><glyph glyph-name="calendar-times" unicode="" horiz-adv-x="448" d="m311.7 73.3-17-17c-4.7-4.7-12.3-4.7-17 0L224 110.1l-53.7-53.7c-4.7-4.7-12.3-4.7-17 0l-17 17c-4.7 4.7-4.7 12.3 0 17l53.7 53.7-53.7 53.7c-4.7 4.7-4.7 12.3 0 17l17 17c4.7 4.7 12.3 4.7 17 0l53.7-53.7 53.7 53.7c4.7 4.7 12.3 4.7 17 0l17-17c4.7-4.7 4.7-12.3 0-17L257.9 144l53.7-53.7c4.8-4.7 4.8-12.3.1-17M448 336V-16c0-26.5-21.5-48-48-48H48C21.5-64 0-42.5 0-16v352c0 26.5 21.5 48 48 48h48v52c0 6.6 5.4 12 12 12h40c6.6 0 12-5.4 12-12v-52h128v52c0 6.6 5.4 12 12 12h40c6.6 0 12-5.4 12-12v-52h48c26.5 0 48-21.5 48-48M400-10v298H48V-10c0-3.3 2.7-6 6-6h340c3.3 0 6 2.7 6 6"/><glyph glyph-name="calendar-check" unicode="" horiz-adv-x="448" d="M400 384c26.51 0 48-21.49 48-48V-16c0-26.51-21.49-48-48-48H48C21.49-64 0-42.51 0-16v352c0 26.51 21.49 48 48 48h48v52c0 6.627 5.373 12 12 12h40c6.627 0 12-5.373 12-12v-52h128v52c0 6.627 5.373 12 12 12h40c6.627 0 12-5.373 12-12v-52zm-6-400c3.312 0 6 2.688 6 6v298H48V-10c0-3.312 2.688-6 6-6zm-52.849 200.65L198.841 43.481c-4.705-4.667-12.303-4.638-16.97.067l-75.091 75.7c-4.667 4.705-4.638 12.302.067 16.97l22.72 22.536c4.705 4.667 12.302 4.637 16.97-.069l44.103-44.46 111.072 110.181c4.705 4.667 12.302 4.637 16.97-.068l22.537-22.718c4.667-4.705 4.636-12.303-.069-16.97z"/><glyph glyph-name="map" unicode="" horiz-adv-x="576" d="M560.02 416c8.45 0 15.98-6.83 15.98-16.02V53.66c0-13.47-8.324-24.995-20.12-29.71L404.05-28.86a64 64 0 0 0-19.807-3.123A63.8 63.8 0 0 0 364-28.71L192 32 21.95-30.84c-1.99-.79-4-1.16-5.96-1.16C7.53-32 0-25.17 0-15.98v346.32c.002 13.47 8.326 24.993 20.12 29.71l151.83 52.81a64.2 64.2 0 0 0 19.81 3.14 64.2 64.2 0 0 0 20.24-3.28L384 352h.01l170.05 62.84c1.98.79 4 1.16 5.96 1.16M224 357.58V71.61l128-45.19v285.97zM48 29.95l127.36 47.08.64.23v286.2L48 318.93zm480 35.13v288.97l-127.36-47.07-.64-.24V20.55z"/><glyph glyph-name="comment-alt" unicode="" d="M448 448c35.3 0 64-28.7 64-64V96c0-35.3-28.7-64-64-64H304L179.1-61.6c-2.2-1.7-4.7-2.4-7.1-2.4-6.2 0-12 4.9-12 12v84H64C28.7 32 0 60.7 0 96v288c0 35.3 28.7 64 64 64zm16-352v288c0 8.8-7.2 16-16 16H64c-8.8 0-16-7.2-16-16V96c0-8.8 7.2-16 16-16h144V20l67.2 50.4L288 80h160c8.8 0 16 7.2 16 16"/><glyph glyph-name="pause-circle" unicode="" d="M256 440c137 0 248-111 248-248S393-56 256-56 8 55 8 192s111 248 248 248m0-448c110.5 0 200 89.5 200 200s-89.5 200-200 200S56 302.5 56 192 145.5-8 256-8m96 280V112c0-8.8-7.2-16-16-16h-48c-8.8 0-16 7.2-16 16v160c0 8.8 7.2 16 16 16h48c8.8 0 16-7.2 16-16m-112 0V112c0-8.8-7.2-16-16-16h-48c-8.8 0-16 7.2-16 16v160c0 8.8 7.2 16 16 16h48c8.8 0 16-7.2 16-16"/><glyph glyph-name="stop-circle" unicode="" d="M504 192C504 55 393-56 256-56S8 55 8 192s111 248 248 248 248-111 248-248m-448 0C56 81.5 145.5-8 256-8s200 89.5 200 200-89.5 200-200 200S56 302.5 56 192m296 80V112c0-8.8-7.2-16-16-16H176c-8.8 0-16 7.2-16 16v160c0 8.8 7.2 16 16 16h160c8.8 0 16-7.2 16-16"/><glyph glyph-name="handshake" unicode="" horiz-adv-x="640" d="M519.2 320.1H640V64.401h-64c-17.5 0-31.8 14.2-31.9 31.7h-57.9c-1.8-8.2-5.3-16.1-10.9-23l-26.2-32.3c-15.8-19.4-41.9-25.5-64-16.8-13.5-16.6-30.6-24-48.8-24-15.1 0-28.6 5.1-41.1 15.9-31.8-21.9-74.7-21.3-105.6 3.8L105 96.1h-9.1C95.8 78.6 81.6 64.4 64 64.4H0v255.7h118l47.6 47.6c10.5 10.4 24.8 16.3 39.6 16.3H432c15.432 0 29.432-6.221 39.6-16.3zM48 96.4c8.8 0 16 7.1 16 16 0 8.8-7.2 16-16 16s-16-7.2-16-16 7.2-16 16-16m390 6.9c2.7 3.4 2.2 8.5-1.2 11.3l-108.2 87.8-8.2-7.5c-40.3-36.8-86.7-11.8-101.5 4.4-26.7 29-25 74.4 4.4 101.3l38.7 35.5h-56.7c-2-.8-3.7-1.5-5.7-2.3l-61.7-61.6H96V144.1h27.7l97.3-88c16.1-13.1 41.4-10.5 55.3 6.6l15.6 19.2 36.8-31.5c3-2.4 12-4.9 18 2.4l30 36.5 23.9-19.4c3.5-2.8 8.5-2.2 11.3 1.2zm106 40.8v128h-44.7l-61.7 61.6c-1.4 1.5-3.4 2.3-5.5 2.3l-83.7-.2c-10 0-19.6-3.7-27-10.5l-65.6-60.1c-9.7-8.8-10.5-24-1.2-33.9 8.9-9.4 25.1-8.7 34.6 0l55.2 50.6c6.5 5.9 16.6 5.5 22.6-1l10.9-11.7c6-6.5 5.5-16.6-1-22.6l-12.5-11.4 102.7-83.4c2.8-2.3 5.4-4.9 7.7-7.7zm48-47.7c8.8 0 16 7.1 16 16 0 8.8-7.2 16-16 16s-16-7.2-16-16 7.2-16 16-16"/><glyph glyph-name="envelope-open" unicode="" d="M494.586 283.484C505.238 274.676 512 261.378 512 246.491V-16c0-26.51-21.49-48-48-48H48C21.49-64 0-42.51 0-16v262.515c0 14.935 6.805 28.27 17.515 37.077 4.08 3.354 110.688 89.1 135.15 108.549C175.364 410.283 212.795 448 256 448c43.436 0 81.231-38.192 103.335-55.86 23.528-18.707 130.554-104.773 135.25-108.656zM464-10v253.632c0 .002.004.001.004.003a5.98 5.98 0 0 1-2.228 4.66c-15.863 12.823-108.793 87.575-132.366 106.316C311.858 368.631 279.694 400 256 400c-23.601 0-55.245-30.88-73.41-45.389-23.571-18.74-116.494-93.48-132.364-106.293A6 6 0 0 1 48 243.653V-10c0-3.311 2.689-6 6-6h404c3.312 0 6 2.689 6 6m-31.991 187.704c4.249-5.16 3.465-12.795-1.745-16.981-28.975-23.283-59.274-47.597-70.929-56.863C336.636 85.717 299.205 48 256 48c-43.452 0-81.287 38.237-103.335 55.86-11.28 8.967-41.744 33.413-70.927 56.865-5.21 4.187-5.993 11.822-1.745 16.981l15.258 18.528c4.178 5.073 11.657 5.843 16.78 1.726 28.618-23.001 58.565-47.035 70.559-56.571 17.553-14.02 49.717-45.39 73.41-45.39 23.602 0 55.246 30.88 73.41 45.39 11.994 9.535 41.944 33.57 70.563 56.568 5.122 4.116 12.601 3.346 16.778-1.727z"/><glyph glyph-name="address-book" unicode="" horiz-adv-x="448" d="M436 288h-20v-64h20c6.6 0 12-5.4 12-12v-40c0-6.6-5.4-12-12-12h-20V96h20c6.6 0 12-5.4 12-12V44c0-6.6-5.4-12-12-12h-20v-48c0-26.5-21.5-48-48-48H48C21.5-64 0-42.5 0-16v416c0 26.5 21.5 48 48 48h320c26.5 0 48-21.5 48-48v-48h20c6.6 0 12-5.4 12-12v-40c0-6.6-5.4-12-12-12M368-16v416H48V-16zM208 192c-35.3 0-64 28.7-64 64s28.7 64 64 64 64-28.7 64-64-28.7-64-64-64M118.4 64C106 64 96 72.6 96 83.2v19.2c0 31.8 30.1 57.6 67.2 57.6 11.4 0 17.9-8 44.8-8 26.1 0 34 8 44.8 8 37.1 0 67.2-25.8 67.2-57.6V83.2c0-10.6-10-19.2-22.4-19.2z"/><glyph glyph-name="address-card" unicode="" horiz-adv-x="576" d="M528 416c26.5 0 48-21.5 48-48V16c0-26.5-21.5-48-48-48H48C21.5-32 0-10.5 0 16v352c0 26.5 21.5 48 48 48zm0-400v352H48V16zM208 192c-35.3 0-64 28.7-64 64s28.7 64 64 64 64-28.7 64-64-28.7-64-64-64M118.4 64C106 64 96 72.6 96 83.2v19.2c0 31.8 30.1 57.6 67.2 57.6 11.4 0 17.9-8 44.8-8 26.1 0 34 8 44.8 8 37.1 0 67.2-25.8 67.2-57.6V83.2c0-10.6-10-19.2-22.4-19.2zM360 128c-4.4 0-8 3.6-8 8v16c0 4.4 3.6 8 8 8h112c4.4 0 8-3.6 8-8v-16c0-4.4-3.6-8-8-8zm0 64c-4.4 0-8 3.6-8 8v16c0 4.4 3.6 8 8 8h112c4.4 0 8-3.6 8-8v-16c0-4.4-3.6-8-8-8zm0 64c-4.4 0-8 3.6-8 8v16c0 4.4 3.6 8 8 8h112c4.4 0 8-3.6 8-8v-16c0-4.4-3.6-8-8-8z"/><glyph glyph-name="user-circle" unicode="" horiz-adv-x="496" d="M248 344c53 0 96-43 96-96s-43-96-96-96-96 43-96 96 43 96 96 96m0-144c26.5 0 48 21.5 48 48s-21.5 48-48 48-48-21.5-48-48 21.5-48 48-48m0 240c137 0 248-111 248-248S385-56 248-56 0 55 0 192s111 248 248 248m0-448c49.7 0 95.1 18.3 130.1 48.4-14.9 23-40.4 38.5-69.6 39.5-20.8-6.5-40.6-9.6-60.5-9.6s-39.7 3.2-60.5 9.6c-29.2-.9-54.7-16.5-69.6-39.5C152.9 10.3 198.3-8 248-8m162.7 84.1C434.1 108.8 448 148.8 448 192c0 110.3-89.7 200-200 200S48 302.3 48 192c0-43.2 13.9-83.2 37.3-115.9 24.5 31.4 62.2 51.9 105.1 51.9 10.2 0 26.1-9.6 57.6-9.6 31.6 0 47.4 9.6 57.6 9.6 43 0 80.7-20.5 105.1-51.9"/><glyph glyph-name="id-badge" unicode="" horiz-adv-x="384" d="M336 448c26.5 0 48-21.5 48-48V-16c0-26.5-21.5-48-48-48H48C21.5-64 0-42.5 0-16v416c0 26.5 21.5 48 48 48zm0-464v416H48V-16zM144 336c-8.8 0-16 7.2-16 16s7.2 16 16 16h96c8.8 0 16-7.2 16-16s-7.2-16-16-16zm48-176c-35.3 0-64 28.7-64 64s28.7 64 64 64 64-28.7 64-64-28.7-64-64-64M102.4 32C90 32 80 40.6 80 51.2v19.2c0 31.8 30.1 57.6 67.2 57.6 11.4 0 17.9-8 44.8-8 26.1 0 34 8 44.8 8 37.1 0 67.2-25.8 67.2-57.6V51.2c0-10.6-10-19.2-22.4-19.2z"/><glyph glyph-name="id-card" unicode="" horiz-adv-x="576" d="M528 416c26.5 0 48-21.5 48-48V16c0-26.5-21.5-48-48-48H48C21.5-32 0-10.5 0 16v352c0 26.5 21.5 48 48 48zm0-400v288H48V16h32.8c-1 4.5-.8-3.6-.8 22.4C80 70.2 110.1 96 147.2 96c11.4 0 17.9-8 44.8-8 26.1 0 34 8 44.8 8 37.1 0 67.2-25.8 67.2-57.6 0-26 .1-17.9-.8-22.4zM360 96c-4.4 0-8 3.6-8 8v16c0 4.4 3.6 8 8 8h112c4.4 0 8-3.6 8-8v-16c0-4.4-3.6-8-8-8zm0 64c-4.4 0-8 3.6-8 8v16c0 4.4 3.6 8 8 8h112c4.4 0 8-3.6 8-8v-16c0-4.4-3.6-8-8-8zm0 64c-4.4 0-8 3.6-8 8v16c0 4.4 3.6 8 8 8h112c4.4 0 8-3.6 8-8v-16c0-4.4-3.6-8-8-8zm-168-96c-35.3 0-64 28.7-64 64s28.7 64 64 64 64-28.7 64-64-28.7-64-64-64"/><glyph glyph-name="window-maximize" unicode="" d="M464 416c26.5 0 48-21.5 48-48V16c0-26.5-21.5-48-48-48H48C21.5-32 0-10.5 0 16v352c0 26.5 21.5 48 48 48zm0-394v234H48V22c0-3.3 2.7-6 6-6h404c3.3 0 6 2.7 6 6"/><glyph glyph-name="window-minimize" unicode="" d="M480-32H32C14.3-32 0-17.7 0 0s14.3 32 32 32h448c17.7 0 32-14.3 32-32s-14.3-32-32-32"/><glyph glyph-name="window-restore" unicode="" d="M464 448c26.5 0 48-21.5 48-48V80c0-26.5-21.5-48-48-48h-48v-48c0-26.5-21.5-48-48-48H48C21.5-64 0-42.5 0-16v320c0 26.5 21.5 48 48 48h48v48c0 26.5 21.5 48 48 48zM368-16v208H48V-16zm96 96v320H144v-48h224c26.5 0 48-21.5 48-48V80z"/><glyph glyph-name="snowflake" unicode="" horiz-adv-x="448" d="M440.1 92.8c7.6-4.4 10.1-14.2 5.5-21.7l-7.9-13.9c-4.4-7.7-14-10.3-21.5-5.9l-39.2 23 9.1-34.7c2.3-8.5-2.7-17.3-11.1-19.6l-15.2-4.1c-8.4-2.3-17.1 2.8-19.3 11.3l-21.3 81-71.9 42.2V65.9l58.3-59.3c6.1-6.2 6.1-16.4 0-22.6l-11.1-11.3c-6.1-6.2-16.1-6.2-22.2 0L247.4-1.9V-48c0-8.8-7-16-15.7-16H216c-8.7 0-15.7 7.2-15.7 16v45.9l-24.9-25.4c-6.1-6.2-16.1-6.2-22.2 0l-11.1 11.3C136-10 136 .2 142.1 6.4l58.3 59.3v84.5L128.5 108l-21.3-81c-2.3-8.5-10.9-13.6-19.3-11.3l-15.2 4.1c-8.4 2.3-13.3 11.1-11.1 19.6l9.1 34.7-39.2-23C24 46.7 14.3 49.3 10 57L2.1 70.9C-2.2 78.6.4 88.4 7.9 92.8l39.2 23-34.1 9.3c-8.4 2.3-13.3 11.1-11.1 19.6L6 160.2c2.3 8.5 10.9 13.6 19.3 11.3l79.7-21.7 71.9 42.2-71.9 42.2-79.7-21.7c-8.4-2.3-17.1 2.8-19.3 11.3l-4.1 15.5c-2.3 8.5 2.7 17.3 11.1 19.6l34.1 9.1-39.2 23c-7.6 4.5-10.1 14.2-5.8 21.9l7.9 13.9c4.4 7.7 14 10.3 21.5 5.9l39.2-23-9.1 34.7c-2.3 8.5 2.7 17.3 11.1 19.6l15.2 4.1c8.4 2.3 17.1-2.8 19.3-11.3l21.3-81 71.9-42.2v84.5l-58.3 59.3c-6.1 6.2-6.1 16.4 0 22.6l11.5 11.3c6.1 6.2 16.1 6.2 22.2 0l24.9-25.4V432c0 8.8 7 16 15.7 16h15.7c8.7 0 15.7-7.2 15.7-16v-45.9l24.9 25.4c6.1 6.2 16.1 6.2 22.2 0l11.1-11.3c6.1-6.2 6.1-16.4 0-22.6l-58.3-59.3v-84.5l71.9 42.2 21.3 81c2.3 8.5 10.9 13.6 19.3 11.3l15.2-4.1c8.4-2.3 13.3-11.1 11.1-19.6l-9.1-34.7 39.2 23c7.5 4.4 17.2 1.8 21.5-5.9l7.9-13.9c4.3-7.7 1.7-17.5-5.8-21.9l-39.2-23 34.1-9.3c8.4-2.3 13.3-11.1 11.1-19.6l-4.1-15.5c-2.3-8.5-10.9-13.6-19.3-11.3l-79.7 21.7-71.9-42.2 71.8-42.2 79.7 21.7c8.4 2.3 17.1-2.8 19.3-11.3l4.1-15.5c2.3-8.5-2.7-17.3-11.1-19.6l-34.1-9.3z"/><glyph glyph-name="trash-alt" unicode="" horiz-adv-x="448" d="M268 32c-6.623 0-12 5.377-12 12v216c0 6.623 5.377 12 12 12h24c6.623 0 12-5.377 12-12V44c0-6.623-5.377-12-12-12zm164 336c8.831 0 16-7.169 16-16v-16c0-8.831-7.169-16-16-16h-16V-16c0-26.492-21.508-48-48-48H80c-26.492 0-48 21.508-48 48v336H16c-8.831 0-16 7.169-16 16v16c0 8.831 7.169 16 16 16h82.41l34.02 56.7c8.392 13.985 23.677 23.3 41.16 23.3h100.82c.008 0-.016.052-.008.052 17.482 0 32.795-9.367 41.188-23.352l34-56.7zm-260.16 29.09L154.39 368h139.22l-17.46 29.09a5.99 5.99 0 0 1-5.143 2.91H177c-.005 0-.006.007-.012.007a6 6 0 0 1-5.148-2.917M368-16v336H80V-16zM156 32c-6.623 0-12 5.377-12 12v216c0 6.623 5.377 12 12 12h24c6.623 0 12-5.377 12-12V44c0-6.623-5.377-12-12-12z"/><glyph glyph-name="images" unicode="" horiz-adv-x="576" d="M480 32V16c0-26.51-21.49-48-48-48H48C21.49-32 0-10.51 0 16v256c0 26.51 21.49 48 48 48h16v-48H54c-3.312 0-6-2.688-6-6V22c0-3.312 2.688-6 6-6h372c3.312 0 6 2.688 6 6v10zm42 336H150c-3.312 0-6-2.688-6-6V118c0-3.312 2.688-6 6-6h372c3.312 0 6 2.688 6 6v244c0 3.312-2.688 6-6 6m6 48c26.51 0 48-21.49 48-48V112c0-26.51-21.49-48-48-48H144c-26.51 0-48 21.49-48 48v256c0 26.51 21.49 48 48 48zM264 304c0-22.09-17.91-40-40-40s-40 17.91-40 40 17.91 40 40 40 40-17.91 40-40m-72-96 39.515 39.515c4.686 4.686 12.284 4.686 16.971 0L288 208l103.515 103.515c4.687 4.687 12.284 4.687 16.972 0L480 240v-80H192z"/><glyph glyph-name="clipboard" unicode="" horiz-adv-x="384" d="M336 384c26.5 0 48-21.5 48-48V-16c0-26.5-21.5-48-48-48H48C21.5-64 0-42.5 0-16v352c0 26.5 21.5 48 48 48h80c0 35.3 28.7 64 64 64s64-28.7 64-64zm-144 24c-13.3 0-24-10.7-24-24s10.7-24 24-24 24 10.7 24 24-10.7 24-24 24M336-10v340c0 3.3-2.7 6-6 6h-42v-36c0-6.6-5.4-12-12-12H108c-6.6 0-12 5.4-12 12v36H54c-3.3 0-6-2.7-6-6V-10c0-3.3 2.7-6 6-6h276c3.3 0 6 2.7 6 6"/><glyph glyph-name="arrow-alt-circle-down" unicode="" d="M256 440c137 0 248-111 248-248S393-56 256-56 8 55 8 192s111 248 248 248m0-448c110.5 0 200 89.5 200 200s-89.5 200-200 200S56 302.5 56 192 145.5-8 256-8m-32 316c0 6.6 5.4 12 12 12h40c6.6 0 12-5.4 12-12V192h67c10.7 0 16.1-12.9 8.5-20.5l-99-99c-4.7-4.7-12.3-4.7-17 0l-99 99c-7.5 7.6-2.2 20.5 8.5 20.5h67z"/><glyph glyph-name="arrow-alt-circle-left" unicode="" d="M8 192c0 137 111 248 248 248s248-111 248-248S393-56 256-56 8 55 8 192m448 0c0 110.5-89.5 200-200 200S56 302.5 56 192 145.5-8 256-8s200 89.5 200 200m-72 20v-40c0-6.6-5.4-12-12-12H256V93c0-10.7-12.9-16-20.5-8.5l-99 99c-4.7 4.7-4.7 12.3 0 17l99 99c7.6 7.6 20.5 2.2 20.5-8.5v-67h116c6.6 0 12-5.4 12-12"/><glyph glyph-name="arrow-alt-circle-right" unicode="" d="M504 192C504 55 393-56 256-56S8 55 8 192s111 248 248 248 248-111 248-248m-448 0C56 81.5 145.5-8 256-8s200 89.5 200 200-89.5 200-200 200S56 302.5 56 192m72-20v40c0 6.6 5.4 12 12 12h116v67c0 10.7 12.9 16 20.5 8.5l99-99c4.7-4.7 4.7-12.3 0-17l-99-99c-7.6-7.6-20.5-2.2-20.5 8.5v67H140c-6.6 0-12 5.4-12 12"/><glyph glyph-name="arrow-alt-circle-up" unicode="" d="M256-56C119-56 8 55 8 192s111 248 248 248 248-111 248-248S393-56 256-56m0 448c-110.5 0-200-89.5-200-200S145.5-8 256-8s200 89.5 200 200-89.5 200-200 200m20-328h-40c-6.6 0-12 5.4-12 12v116h-67c-10.7 0-16 12.9-8.5 20.5l99 99c4.7 4.7 12.3 4.7 17 0l99-99c7.6-7.6 2.2-20.5-8.5-20.5h-67V76c0-6.6-5.4-12-12-12"/><glyph glyph-name="gem" unicode="" horiz-adv-x="576" d="M464 448c4.1 0 7.8-2 10.1-5.4L574 295.4c2.9-4.4 2.6-10.1-.7-14.2l-276-340.8c-4.8-5.9-13.8-5.9-18.6 0L2.7 281.2c-3.3 4-3.6 9.8-.7 14.2l100 147.2c2.2 3.4 6 5.4 10 5.4zm-19.3-48h-56.8l51.7-96H508zm-202.1 0L191 304h194l-51.7 96zm-111.3 0L68 304h68.4l51.7 96zm-43-144L208 96l-68.3 160zm102.9 0L288 12.7 384.8 256zM368 96l119.6 160h-51.4z"/><glyph glyph-name="money-bill-alt" unicode="" horiz-adv-x="640" d="M320 304c53.02 0 96-50.14 96-112 0-61.87-43-112-96-112-53.02 0-96 50.15-96 112 0 61.86 42.98 112 96 112m40-168v16c0 4.42-3.58 8-8 8h-16v88c0 4.42-3.58 8-8 8h-13.58a23.96 23.96 0 0 1-13.31-4.03l-15.33-10.22a7.98 7.98 0 0 1-3.56-6.661c0-1.638.494-3.161 1.34-4.429l8.88-13.31a7.98 7.98 0 0 1 6.661-3.56c1.638 0 3.16.494 4.43 1.34l.469.31V160h-16c-4.42 0-8-3.58-8-8v-16c0-4.42 3.58-8 8-8h64c4.42 0 8 3.58 8 8m248 248c17.67 0 32-14.33 32-32V32c0-17.67-14.33-32-32-32H32C14.33 0 0 14.33 0 32v320c0 17.67 14.33 32 32 32zm-16-272v160c-35.35 0-64 28.65-64 64H112c0-35.35-28.65-64-64-64V112c35.35 0 64-28.65 64-64h416c0 35.35 28.65 64 64 64"/><glyph glyph-name="window-close" unicode="" d="M464 416c26.5 0 48-21.5 48-48V16c0-26.5-21.5-48-48-48H48C21.5-32 0-10.5 0 16v352c0 26.5 21.5 48 48 48zm0-394v340c0 3.3-2.7 6-6 6H54c-3.3 0-6-2.7-6-6V22c0-3.3 2.7-6 6-6h404c3.3 0 6 2.7 6 6M356.5 253.4 295.1 192l61.4-61.4c4.6-4.6 4.6-12.1 0-16.8l-22.3-22.3c-4.6-4.6-12.1-4.6-16.8 0L256 152.9l-61.4-61.4c-4.6-4.6-12.1-4.6-16.8 0l-22.3 22.3c-4.6 4.6-4.6 12.1 0 16.8l61.4 61.4-61.4 61.4c-4.6 4.6-4.6 12.1 0 16.8l22.3 22.3c4.6 4.6 12.1 4.6 16.8 0l61.4-61.4 61.4 61.4c4.6 4.6 12.1 4.6 16.8 0l22.3-22.3c4.7-4.6 4.7-12.1 0-16.8"/><glyph glyph-name="comment-dots" unicode="" d="M144 240c17.7 0 32-14.3 32-32s-14.3-32-32-32-32 14.3-32 32 14.3 32 32 32m112 0c17.7 0 32-14.3 32-32s-14.3-32-32-32-32 14.3-32 32 14.3 32 32 32m112 0c17.7 0 32-14.3 32-32s-14.3-32-32-32-32 14.3-32 32 14.3 32 32 32M256 416c141.4 0 256-93.1 256-208S397.4 0 256 0c-32.8 0-64 5.2-92.9 14.3C134-6.3 85.5-32 24-32c-9.6 0-18.3 5.7-22.1 14.5s-2 19 4.6 26C7 8.9 38 42.3 52.9 81.7 19.9 116.8 0 160.4 0 208c0 114.9 114.6 208 256 208m0-368c114.7 0 208 71.8 208 160s-93.3 160-208 160S48 296.2 48 208c0-42.2 21.7-74.1 39.8-93.4l20.6-21.8-10.6-28.1c-5.5-14.5-12.6-28.1-19.9-40.2 23.6 7.6 43.2 18.9 57.5 29l19.5 13.8 22.7-7.2c25.3-8 51.7-12.1 78.4-12.1"/><glyph glyph-name="smile-wink" unicode="" horiz-adv-x="496" d="M248 440c137 0 248-111 248-248S385-56 248-56 0 55 0 192s111 248 248 248m0-448c110.3 0 200 89.7 200 200s-89.7 200-200 200S48 302.3 48 192 137.7-8 248-8m117.8 146.4c10.2-8.5 11.6-23.6 3.1-33.8-30-36-74.1-56.6-120.9-56.6s-90.9 20.6-120.9 56.6c-8.399 10.2-7.099 25.3 3.101 33.8 10.1 8.4 25.3 7.1 33.8-3.1 20.8-25.1 51.5-39.4 84-39.4s63.2 14.4 84 39.4c8.5 10.2 23.6 11.6 33.8 3.1zM168 208c-17.7 0-32 14.3-32 32s14.3 32 32 32 32-14.3 32-32-14.3-32-32-32m160 60c25.7 0 55.9-16.9 59.7-42.1 1.8-11.1-11.3-18.2-19.8-10.8l-9.5 8.5c-14.8 13.2-46.2 13.2-61 0l-9.5-8.5c-8.3-7.4-21.5-.4-19.8 10.8 4 25.2 34.2 42.1 59.9 42.1"/><glyph glyph-name="angry" unicode="" horiz-adv-x="496" d="M248 440c137 0 248-111 248-248S385-56 248-56 0 55 0 192s111 248 248 248m0-448c110.3 0 200 89.7 200 200s-89.7 200-200 200S48 302.3 48 192 137.7-8 248-8m0 144c33.6 0 65.2-14.8 86.8-40.6 8.4-10.2 7.1-25.3-3.1-33.8-10.6-8.9-25.7-6.7-33.8 3-24.8 29.7-75 29.7-99.8 0-8.5-10.2-23.6-11.5-33.8-3s-11.6 23.6-3.1 33.8c21.6 25.8 53.2 40.6 86.8 40.6m-48 72c0-17.7-14.3-32.1-32-32.1s-32 14.3-32 32c0 6.2 2.2 11.7 5.3 16.6l-28.2 8.5c-12.7 3.8-19.9 17.2-16.1 29.9s17.1 20 29.9 16.1l80-24c12.7-3.8 19.9-17.2 16.1-29.9-3.1-10.4-12.7-17.1-23-17.1m199 54.9c3.8-12.7-3.4-26.1-16.1-29.8l-28.2-8.5c3.1-4.9 5.3-10.4 5.3-16.6 0-17.7-14.3-32-32-32s-32 14.3-32 32c-10.3 0-19.9 6.7-23 17.1-3.8 12.7 3.4 26.1 16.1 29.9l80 24c12.8 3.8 26.1-3.4 29.9-16.1"/><glyph glyph-name="dizzy" unicode="" horiz-adv-x="496" d="M248 440c137 0 248-111 248-248S385-56 248-56 0 55 0 192s111 248 248 248m0-448c110.3 0 200 89.7 200 200s-89.7 200-200 200S48 302.3 48 192 137.7-8 248-8m-33.8 217.9c-7.9-7.9-20.5-7.9-28.4-.2L168 227.5l-17.8-17.8c-7.8-7.8-20.5-7.8-28.3 0s-7.8 20.5 0 28.3l17.9 17.9-17.9 17.9c-7.8 7.8-7.8 20.5 0 28.3s20.5 7.8 28.3 0l17.8-17.8 17.9 17.9c7.8 7.8 20.5 7.8 28.3 0s7.8-20.5 0-28.3L196.3 256l17.9-17.8c7.8-7.8 7.8-20.5 0-28.3m160 92.2c7.7-7.8 7.7-20.4 0-28.2L356.3 256l17.8-18c7.8-7.8 7.8-20.5 0-28.3s-20.5-7.8-28.3 0L328 227.5l-17.8-17.8c-7.8-7.8-20.5-7.8-28.3 0s-7.8 20.5 0 28.3l17.9 17.9-17.9 17.9c-7.8 7.8-7.8 20.5 0 28.3s20.5 7.8 28.3 0l17.8-17.8 17.9 17.8c7.8 7.8 20.5 7.8 28.3 0M248 176c35.3 0 64-28.7 64-64s-28.7-64-64-64-64 28.7-64 64 28.7 64 64 64"/><glyph glyph-name="flushed" unicode="" horiz-adv-x="496" d="M248 440c137 0 248-111 248-248S385-56 248-56 0 55 0 192s111 248 248 248m0-448c110.3 0 200 89.7 200 200s-89.7 200-200 200S48 302.3 48 192 137.7-8 248-8m96 312c44.2 0 80-35.8 80-80s-35.8-80-80-80-80 35.8-80 80 35.8 80 80 80m0-128c26.5 0 48 21.5 48 48s-21.5 48-48 48-48-21.5-48-48 21.5-48 48-48m0 72c13.3 0 24-10.7 24-24s-10.7-24-24-24-24 10.7-24 24 10.7 24 24 24m-112-24c0-44.2-35.8-80-80-80s-80 35.8-80 80 35.8 80 80 80 80-35.8 80-80m-80-48c26.5 0 48 21.5 48 48s-21.5 48-48 48-48-21.5-48-48 21.5-48 48-48m0 72c13.3 0 24-10.7 24-24s-10.7-24-24-24-24 10.7-24 24 10.7 24 24 24m160-144c13.2 0 24-10.8 24-24s-10.8-24-24-24H184c-13.2 0-24 10.8-24 24s10.8 24 24 24z"/><glyph glyph-name="frown-open" unicode="" horiz-adv-x="496" d="M248 440c137 0 248-111 248-248S385-56 248-56 0 55 0 192s111 248 248 248m0-448c110.3 0 200 89.7 200 200s-89.7 200-200 200S48 302.3 48 192 137.7-8 248-8m-48 248c0-17.7-14.3-32-32-32s-32 14.3-32 32 14.3 32 32 32 32-14.3 32-32m128 32c17.7 0 32-14.3 32-32s-14.3-32-32-32-32 14.3-32 32 14.3 32 32 32m-80-112c35.6 0 88.8-21.3 95.8-61.2 2-11.8-9.1-21.6-20.5-18.1C292.1 90.3 263.9 96 248 96s-44.1-5.7-75.3-15.3c-11.5-3.4-22.5 6.3-20.5 18.1 7 39.9 60.2 61.2 95.8 61.2"/><glyph glyph-name="grimace" unicode="" horiz-adv-x="496" d="M248 440c137 0 248-111 248-248S385-56 248-56 0 55 0 192s111 248 248 248m0-448c110.3 0 200 89.7 200 200s-89.7 200-200 200S48 302.3 48 192 137.7-8 248-8m-80 216c-17.7 0-32 14.3-32 32s14.3 32 32 32 32-14.3 32-32-14.3-32-32-32m160 0c-17.7 0-32 14.3-32 32s14.3 32 32 32 32-14.3 32-32-14.3-32-32-32m16-16c26.5 0 48-21.5 48-48v-32c0-26.5-21.5-48-48-48H152c-26.5 0-48 21.5-48 48v32c0 26.5 21.5 48 48 48zM176 96v24h-40v-8c0-8.8 7.2-16 16-16zm0 40v24h-24c-8.8 0-16-7.2-16-16v-8zm64-40v24h-48V96zm0 40v24h-48v-24zm64-40v24h-48V96zm0 40v24h-48v-24zm56-24v8h-40V96h24c8.8 0 16 7.2 16 16m0 24v8c0 8.8-7.2 16-16 16h-24v-24z"/><glyph glyph-name="grin" unicode="" horiz-adv-x="496" d="M248 440c137 0 248-111 248-248S385-56 248-56 0 55 0 192s111 248 248 248m0-448c110.3 0 200 89.7 200 200s-89.7 200-200 200S48 302.3 48 192 137.7-8 248-8m105.6 151.4c10 3.1 19.3-5.5 17.7-15.3-8-47.1-71.3-80-123.3-80s-115.4 32.9-123.3 80c-1.7 9.9 7.8 18.4 17.7 15.3 26-8.3 64.4-13.1 105.6-13.1s79.7 4.8 105.6 13.1M168 208c-17.7 0-32 14.3-32 32s14.3 32 32 32 32-14.3 32-32-14.3-32-32-32m160 0c-17.7 0-32 14.3-32 32s14.3 32 32 32 32-14.3 32-32-14.3-32-32-32"/><glyph glyph-name="grin-alt" unicode="" horiz-adv-x="496" d="M200.3 200c-7.5-11.4-24.6-12-32.7 0-12.4 18.7-15.2 37.3-15.7 56 .6 18.7 3.3 37.3 15.7 56 7.6 11.4 24.7 12 32.7 0 12.4-18.7 15.2-37.3 15.7-56-.6-18.7-3.3-37.3-15.7-56m128 0c-7.5-11.4-24.6-12-32.7 0-12.4 18.7-15.2 37.3-15.7 56 .6 18.7 3.3 37.3 15.7 56 7.6 11.4 24.7 12 32.7 0 12.4-18.7 15.2-37.3 15.7-56-.6-18.7-3.3-37.3-15.7-56M248 440c137 0 248-111 248-248S385-56 248-56 0 55 0 192s111 248 248 248m0-448c110.3 0 200 89.7 200 200s-89.7 200-200 200S48 302.3 48 192 137.7-8 248-8m105.6 151.4c10 3.1 19.3-5.5 17.7-15.3-8-47.1-71.3-80-123.3-80s-115.4 32.8-123.3 80c-1.7 10 7.8 18.4 17.7 15.3 26-8.3 64.4-13.1 105.6-13.1s79.7 4.8 105.6 13.1"/><glyph glyph-name="grin-beam" unicode="" horiz-adv-x="496" d="M248 440c137 0 248-111 248-248S385-56 248-56 0 55 0 192s111 248 248 248m0-448c110.3 0 200 89.7 200 200s-89.7 200-200 200S48 302.3 48 192 137.7-8 248-8m105.6 151.4c10 3.1 19.3-5.5 17.7-15.3-8-47.1-71.3-80-123.3-80s-115.4 32.9-123.3 80c-1.7 10 7.9 18.4 17.7 15.3 26-8.3 64.4-13.1 105.6-13.1s79.7 4.8 105.6 13.1m-235.9 72.9c-3.6 1.1-6 4.6-5.7 8.3 3.3 42.1 32.2 71.4 56 71.4s52.7-29.3 56-71.4c.3-3.8-2.1-7.2-5.7-8.3-3.1-1-7.2 0-9.3 3.7l-9.5 17c-7.7 13.7-19.2 21.6-31.5 21.6s-23.8-7.9-31.5-21.6l-9.5-17c-1.9-3.2-5.8-4.8-9.3-3.7m160 0c-3.6 1.1-6 4.6-5.7 8.3 3.3 42.1 32.2 71.4 56 71.4s52.7-29.3 56-71.4c.3-3.8-2.1-7.2-5.7-8.3-3.1-1-7.2 0-9.3 3.7l-9.5 17c-7.7 13.7-19.2 21.6-31.5 21.6s-23.8-7.9-31.5-21.6l-9.5-17c-1.9-3.2-5.8-4.8-9.3-3.7"/><glyph glyph-name="grin-beam-sweat" unicode="" horiz-adv-x="496" d="M440 288c-29.5 0-53.3 26.3-53.3 58.7 0 25 31.7 75.5 46.2 97.3 3.5 5.3 10.6 5.3 14.2 0 14.5-21.8 46.2-72.3 46.2-97.3 0-32.4-23.8-58.7-53.3-58.7M248 48c-51.9 0-115.3 32.9-123.3 80-1.7 10 7.9 18.4 17.7 15.3 26-8.3 64.4-13.1 105.6-13.1s79.7 4.8 105.6 13.1c10 3.2 19.4-5.4 17.7-15.3-8-47.1-71.399-80-123.3-80m130.3 168.3c-3.1-.9-7.2.1-9.3 3.7l-9.5 17c-7.7 13.7-19.2 21.6-31.5 21.6s-23.8-7.9-31.5-21.6l-9.5-17c-1.9-3.2-5.8-4.8-9.3-3.7-3.6 1.1-6 4.6-5.7 8.3 3.3 42.1 32.2 71.4 56 71.4s52.7-29.3 56-71.4c.3-3.8-2.1-7.2-5.7-8.3m105.3 52.9c8-24.3 12.4-50.2 12.4-77.2C496 55 385-56 248-56S0 55 0 192s111 248 248 248c45.7 0 88.4-12.6 125.2-34.2-10.9-21.6-15.5-36.2-17.2-45.7-31.2 20.1-68.2 31.9-108 31.9-110.3 0-200-89.7-200-200S137.7-8 248-8s200 89.7 200 200c0 22.5-3.9 44.1-10.8 64.3.4 0 21.8-2.8 46.4 12.9M168 258.6c-12.3 0-23.8-7.8-31.5-21.6l-9.5-17c-1.9-3.2-5.8-4.8-9.3-3.7-3.6 1.1-6 4.6-5.7 8.3 3.3 42.1 32.2 71.4 56 71.4s52.7-29.3 56-71.4c.3-3.8-2.1-7.2-5.7-8.3-3.1-1-7.2 0-9.3 3.7l-9.5 17c-7.7 13.7-19.2 21.6-31.5 21.6"/><glyph glyph-name="grin-hearts" unicode="" horiz-adv-x="496" d="M353.6 143.4c10 3.1 19.3-5.5 17.7-15.3-8-47.1-71.3-80-123.3-80s-115.4 32.8-123.3 80c-1.7 10 7.9 18.4 17.7 15.3 26-8.3 64.4-13.1 105.6-13.1s79.7 4.8 105.6 13.1m-152.8 48.9-70.2 18.1c-20.4 5.3-31.9 27-24.2 47.2 6.7 17.7 26.7 26.7 44.9 22l7.1-1.9 2 7.1c5.1 18.1 22.9 30.9 41.5 27.9 21.4-3.4 34.4-24.2 28.8-44.5l-19.4-69.9c-1.3-4.5-6-7.2-10.5-6m188.8 65.3c7.7-20.2-3.8-41.8-24.2-47.1l-70.2-18.2c-4.6-1.2-9.3 1.5-10.5 6l-19.4 69.9c-5.6 20.3 7.4 41.1 28.8 44.5 18.7 3 36.5-9.8 41.5-27.9l2-7.1 7.1 1.9c18.2 4.7 38.2-4.4 44.9-22M248 440c137 0 248-111 248-248S385-56 248-56 0 55 0 192s111 248 248 248m0-448c110.3 0 200 89.7 200 200s-89.7 200-200 200S48 302.3 48 192 137.7-8 248-8"/><glyph glyph-name="grin-squint" unicode="" horiz-adv-x="496" d="M248 440c137 0 248-111 248-248S385-56 248-56 0 55 0 192s111 248 248 248m0-448c110.3 0 200 89.7 200 200s-89.7 200-200 200S48 302.3 48 192 137.7-8 248-8m105.6 151.4c10 3.1 19.3-5.5 17.7-15.3-8-47.1-71.3-80-123.3-80s-115.4 32.9-123.3 80c-1.7 9.9 7.8 18.4 17.7 15.3 26-8.3 64.4-13.1 105.6-13.1s79.7 4.8 105.6 13.1m-234.7 40.8c-3.8 4.4-3.9 11-.1 15.5l33.6 40.3-33.6 40.3c-3.7 4.5-3.7 11 .1 15.5 3.9 4.4 10.2 5.5 15.3 2.5l80-48c3.6-2.2 5.8-6.1 5.8-10.3s-2.2-8.1-5.8-10.3l-80-48c-5.4-3.2-11.7-1.7-15.3 2.5m242.9-2.5-80 48c-3.6 2.2-5.8 6.1-5.8 10.3s2.2 8.1 5.8 10.3l80 48c5.1 2.9 11.5 1.9 15.3-2.5 3.8-4.5 3.9-11 .1-15.5L343.6 240l33.6-40.3c3.7-4.5 3.7-11-.1-15.5-3.6-4.2-9.9-5.7-15.3-2.5"/><glyph glyph-name="grin-squint-tears" unicode="" d="M117.1 63.9c6.3.9 11.7-4.5 10.9-10.9-3.7-25.8-13.7-84-30.6-100.9-22-21.9-57.9-21.5-80.3.9s-22.8 58.4-.9 80.3c16.9 16.9 75.1 26.9 100.9 30.6m-41.2 41.7c-19.6-3.9-35.1-8.1-47.3-12.2-39.3 90.6-22.1 199.9 52 274C129.1 415.8 192.5 440 256 440c38.9 0 77.8-9.2 113.2-27.4-4-12.2-8.2-28-12-48.3-30.4 17.9-65 27.7-101.2 27.7-53.4 0-103.6-20.8-141.4-58.6C53 271.9 40.3 180 75.9 105.6m352.3 187.6c20.3 3.9 36.2 8 48.5 12 47.9-93.2 32.9-210.5-45.2-288.601-48.5-48.4-111.9-72.6-175.4-72.6-33.7 0-67.3 7-98.7 20.6 4.2 12.2 8.3 27.7 12.2 47.2C196.2-1 225.5-8 256-8c53.4 0 103.6 20.8 141.4 58.6 65.7 65.7 75.8 166 30.8 242.601m-33.3 26.9c-6.3-.9-11.7 4.5-10.9 10.9 3.7 25.8 13.7 84 30.6 100.9 22 21.9 57.9 21.5 80.3-.9s22.8-58.4.9-80.3c-16.9-16.9-75.1-26.9-100.9-30.6m-187-108.3c3-3 4.2-7.3 3.2-11.5l-22.6-90.5c-1.4-5.4-6.2-9.1-11.7-9.1h-.9c-5.8.5-10.5 5.1-11 10.9l-4.8 52.3-52.3 4.8c-5.8.5-10.4 5.2-10.9 11-.4 5.9 3.4 11.2 9.1 12.6l90.5 22.7c4.2 1 8.4-.2 11.4-3.2m39.7 25.1c-.1 0-6.4-1.8-11.4 3.2-3 3-4.2 7.3-3.2 11.4l22.6 90.5c1.4 5.7 7 9.2 12.6 9.1 5.8-.5 10.5-5.1 11-10.9l4.8-52.3 52.3-4.8c5.8-.5 10.4-5.2 10.9-11 .4-5.9-3.4-11.2-9.1-12.6zm52-88.5c29.1 29.1 53 59.6 65.3 83.8 4.9 9.3 17.6 9.9 23.4 1.7C416 195 394.4 127 357.7 90.2S252.9 31.9 214 59.6c-8.3 5.9-7.5 18.6 1.7 23.4 24.201 12.5 54.8 36.3 83.9 65.4z"/><glyph glyph-name="grin-stars" unicode="" horiz-adv-x="496" d="M248 440c137 0 248-111 248-248S385-56 248-56 0 55 0 192s111 248 248 248m0-448c110.3 0 200 89.7 200 200s-89.7 200-200 200S48 302.3 48 192 137.7-8 248-8m105.6 151.4c10 3.1 19.3-5.5 17.7-15.3-8-47.1-71.3-80-123.3-80s-115.4 32.8-123.3 80c-1.7 10 7.9 18.4 17.7 15.3 26-8.3 64.4-13.1 105.6-13.1s79.7 4.8 105.6 13.1m-227.9 57.5 6.1 34.9-25.4 24.6c-4.6 4.6-1.9 12.3 4.3 13.2l34.9 5 15.5 31.6c2.9 5.8 11 5.8 13.9 0l15.5-31.6 34.9-5c6.2-1 8.8-8.7 4.3-13.2l-25.4-24.6 6-34.9c1-6.2-5.4-11-11-7.9L168 209.3 136.7 193c-5.6-3.1-12 1.7-11 7.9m259.7 72.7c6.2-1 8.9-8.6 4.4-13.2l-25.4-24.6 6-34.9c1-6.2-5.4-11-11-7.9l-31.3 16.3-31.3-16.3c-5.6-3.1-12 1.7-11 7.9l6 34.9-25.4 24.6c-4.6 4.6-1.9 12.3 4.3 13.2l34.9 5 15.5 31.6c2.9 5.8 11 5.8 13.9 0l15.5-31.6z"/><glyph glyph-name="grin-tears" unicode="" horiz-adv-x="640" d="M117.1 191.9c6.3.9 11.7-4.5 10.9-10.9-3.7-25.8-13.7-84-30.6-100.9-22-21.9-57.9-21.5-80.3.9s-22.8 58.4-.9 80.3c16.9 16.9 75.1 26.9 100.9 30.6m506.7-30.6c21.9-21.9 21.5-57.9-.8-80.2-22.4-22.4-58.4-22.8-80.3-.9-16.9 16.9-26.9 75.1-30.6 100.9-.9 6.3 4.5 11.7 10.8 10.8 25.8-3.7 84-13.7 100.9-30.6M497.2 99.6c12.4-37.3 25.1-43.8 28.3-46.5C480.9-12.7 405.5-56 320-56S159.1-12.7 114.5 53.1c3.1 2.6 15.8 9.1 28.3 46.5C176.2 35.7 243.1-8 320-8S463.8 35.7 497.2 99.6M122.7 223.5c-2.4.3-5 2.5-49.5-6.9C85.6 342 191.3 440 320 440s234.4-98 246.8-223.5c-44.3 9.4-47.4 7.2-49.5 7C502.1 318.8 419.5 392 320 392s-182.1-73.2-197.3-168.5M320 48c-51.9 0-115.3 32.9-123.3 80-1.7 10 7.9 18.4 17.7 15.3 26-8.3 64.4-13.1 105.6-13.1s79.7 4.8 105.6 13.1c10 3.2 19.4-5.4 17.7-15.3-8-47.1-71.399-80-123.3-80m130.3 168.3c-3.1-.9-7.2.1-9.3 3.7l-9.5 17c-7.7 13.7-19.2 21.6-31.5 21.6s-23.8-7.9-31.5-21.6l-9.5-17c-1.9-3.2-5.8-4.8-9.3-3.7-3.6 1.1-6 4.6-5.7 8.3 3.3 42.1 32.2 71.4 56 71.4s52.7-29.3 56-71.4c.3-3.8-2.1-7.2-5.7-8.3M240 258.6c-12.3 0-23.8-7.8-31.5-21.6l-9.5-17c-1.9-3.2-5.8-4.8-9.3-3.7-3.6 1.1-6 4.6-5.7 8.3 3.3 42.1 32.2 71.4 56 71.4s52.7-29.3 56-71.4c.3-3.8-2.1-7.2-5.7-8.3-3.1-1-7.2 0-9.3 3.7l-9.5 17c-7.7 13.7-19.2 21.6-31.5 21.6"/><glyph glyph-name="grin-tongue" unicode="" horiz-adv-x="496" d="M248 440c137 0 248-111 248-248S385-56 248-56 0 55 0 192s111 248 248 248m64-400h.1v43.8l-17.7 8.8c-15.1 7.6-31.5-1.7-34.9-16.5L256.7 64c-2.1-9.2-15.2-9.2-17.3 0l-2.8 12.1c-3.4 14.8-19.9 24-34.9 16.5L184 83.8V41c0-35.2 28-64.5 63.1-65 35.8-.5 64.9 28.4 64.9 64m28.2-25.3C404.2 48.1 448 115 448 192c0 110.3-89.7 200-200 200S48 302.3 48 192c0-77 43.8-143.9 107.8-177.3-2.2 8.1-3.8 16.5-3.8 25.3v43.5c-14.2 12.4-24.4 27.5-27.3 44.5-1.7 10 7.8 18.4 17.7 15.3 26-8.3 64.4-13.1 105.6-13.1s79.7 4.8 105.6 13.1c10 3.2 19.401-5.4 17.7-15.3-2.899-17-13.099-32.1-27.299-44.5V40c0-8.8-1.6-17.2-3.8-25.3zM168 272c17.7 0 32-14.3 32-32s-14.3-32-32-32-32 14.3-32 32 14.3 32 32 32m160 0c17.7 0 32-14.3 32-32s-14.3-32-32-32-32 14.3-32 32 14.3 32 32 32"/><glyph glyph-name="grin-tongue-squint" unicode="" horiz-adv-x="496" d="M248 440c137 0 248-111 248-248S385-56 248-56 0 55 0 192s111 248 248 248m64-400h.1v43.8l-17.7 8.8c-15.1 7.6-31.5-1.7-34.9-16.5L256.7 64c-2.1-9.2-15.2-9.2-17.3 0l-2.8 12.1c-3.4 14.8-19.9 24-34.9 16.5L184 83.8V41c0-35.2 28-64.5 63.1-65 35.8-.5 64.9 28.4 64.9 64m28.2-25.3C404.2 48.1 448 115 448 192c0 110.3-89.7 200-200 200S48 302.3 48 192c0-77 43.8-143.9 107.8-177.3-2.2 8.1-3.8 16.5-3.8 25.3v43.5c-14.2 12.4-24.4 27.5-27.3 44.5-1.7 10 7.8 18.4 17.7 15.3 26-8.3 64.4-13.1 105.6-13.1s79.7 4.8 105.6 13.1c10 3.2 19.401-5.4 17.7-15.3-2.899-17-13.099-32.1-27.299-44.5V40c0-8.8-1.6-17.2-3.8-25.3zm36.9 281.1c3.8-4.4 3.9-11 .1-15.5L343.6 240l33.6-40.3c3.7-4.5 3.7-11-.1-15.5-3.6-4.2-9.9-5.7-15.3-2.5l-80 48c-3.6 2.2-5.8 6.1-5.8 10.3s2.2 8.1 5.8 10.3l80 48c5 3 11.5 1.9 15.3-2.5m-162.9-45.5c3.6-2.2 5.8-6.1 5.8-10.3s-2.2-8.1-5.8-10.3l-80-48c-5.4-3.2-11.7-1.7-15.3 2.5-3.8 4.5-3.9 11-.1 15.5l33.6 40.3-33.6 40.3c-3.7 4.5-3.7 11 .1 15.5 3.9 4.5 10.3 5.5 15.3 2.5z"/><glyph glyph-name="grin-tongue-wink" unicode="" horiz-adv-x="496" d="M152 268c25.7 0 55.9-16.9 59.8-42.1.8-5-1.7-10-6.1-12.4-5.7-3.1-11.2-.6-13.7 1.6l-9.5 8.5c-14.8 13.2-46.2 13.2-61 0l-9.5-8.5c-3.8-3.4-9.3-4-13.7-1.6s-6.9 7.4-6.1 12.4c3.9 25.2 34.1 42.1 59.8 42.1m176 52c44.2 0 80-35.8 80-80s-35.8-80-80-80-80 35.8-80 80 35.8 80 80 80m0-128c26.5 0 48 21.5 48 48s-21.5 48-48 48-48-21.5-48-48 21.5-48 48-48m0 72c13.3 0 24-10.7 24-24s-10.7-24-24-24-24 10.7-24 24 10.7 24 24 24m-80 176c137 0 248-111 248-248S385-56 248-56 0 55 0 192s111 248 248 248m64-400h.1v43.8l-17.7 8.8c-15.1 7.6-31.5-1.7-34.9-16.5L256.7 64c-2.1-9.2-15.2-9.2-17.3 0l-2.8 12.1c-3.4 14.8-19.9 24-34.9 16.5L184 83.8V41c0-35.2 28-64.5 63.1-65 35.8-.5 64.9 28.4 64.9 64m28.2-25.3C404.2 48.1 448 115 448 192c0 110.3-89.7 200-200 200S48 302.3 48 192c0-77 43.8-143.9 107.8-177.3-2.2 8.1-3.8 16.5-3.8 25.3v43.5c-14.2 12.4-24.4 27.5-27.3 44.5-1.7 10 7.8 18.4 17.7 15.3 26-8.3 64.4-13.1 105.6-13.1s79.7 4.8 105.6 13.1c10 3.2 19.401-5.4 17.7-15.3-2.899-17-13.099-32.1-27.299-44.5V40c0-8.8-1.6-17.2-3.8-25.3z"/><glyph glyph-name="grin-wink" unicode="" horiz-adv-x="496" d="M328 268c25.69 0 55.88-16.92 59.87-42.12 1.73-11.09-11.35-18.27-19.83-10.84l-9.55 8.48c-14.81 13.19-46.16 13.19-60.97 0l-9.55-8.48c-8.33-7.4-21.58-.38-19.83 10.84C272.12 251.08 302.31 268 328 268m-160-60c-17.67 0-32 14.33-32 32s14.33 32 32 32 32-14.33 32-32-14.33-32-32-32m185.55-64.64c10.04 3.14 19.39-5.45 17.71-15.34C363.33 80.87 299.94 48 248 48s-115.33 32.87-123.26 80.02c-1.69 9.97 7.77 18.47 17.71 15.34 25.93-8.31 64.4-13.06 105.55-13.06s79.62 4.76 105.55 13.06M248 440c136.97 0 248-111.03 248-248S384.97-56 248-56 0 55.03 0 192s111.03 248 248 248m0-448c110.28 0 200 89.72 200 200s-89.72 200-200 200S48 302.28 48 192 137.72-8 248-8"/><glyph glyph-name="kiss" unicode="" horiz-adv-x="496" d="M168 272c17.7 0 32-14.3 32-32s-14.3-32-32-32-32 14.3-32 32 14.3 32 32 32m136-132c0-13-13.4-27.3-35.1-36.4 21.8-8.7 35.2-23 35.2-36 0-19.2-28.7-41.5-71.5-44h-.5c-3.7 0-7 2.6-7.8 6.2-.9 3.8 1.1 7.7 4.7 9.2l17 7.2c12.9 5.5 20.7 13.5 20.7 21.5s-7.8 16-20.8 21.5L229 96.4c-6 2.6-5.7 12.4 0 14.8l17 7.2c12.9 5.5 20.7 13.5 20.7 21.5s-7.8 16-20.8 21.5l-16.9 7.2c-3.6 1.5-5.6 5.4-4.7 9.2.8 3.8 4.4 6.6 8.2 6.2 42.7-2.5 71.5-24.8 71.5-44m-56 300c137 0 248-111 248-248S385-56 248-56 0 55 0 192s111 248 248 248m0-448c110.3 0 200 89.7 200 200s-89.7 200-200 200S48 302.3 48 192 137.7-8 248-8m80 280c17.7 0 32-14.3 32-32s-14.3-32-32-32-32 14.3-32 32 14.3 32 32 32"/><glyph glyph-name="kiss-beam" unicode="" horiz-adv-x="496" d="M168 296c23.8 0 52.7-29.3 55.8-71.4.3-3.8-2-7.2-5.6-8.3-3.1-1-7.2 0-9.3 3.7l-9.5 17c-7.7 13.7-19.2 21.6-31.5 21.6s-23.8-7.9-31.5-21.6l-9.5-17c-1.8-3.2-5.8-4.7-9.3-3.7-3.6 1.1-5.9 4.6-5.6 8.3 3.3 42.1 32.2 71.4 56 71.4m80 144c137 0 248-111 248-248S385-56 248-56 0 55 0 192s111 248 248 248m0-448c110.3 0 200 89.7 200 200s-89.7 200-200 200S48 302.3 48 192 137.7-8 248-8m56 148c0-13-13.4-27.3-35.1-36.4 21.8-8.7 35.2-23 35.2-36 0-19.2-28.7-41.5-71.5-44h-.5c-3.7 0-7 2.6-7.8 6.2-.9 3.8 1.1 7.7 4.7 9.2l17 7.2c12.9 5.5 20.7 13.5 20.7 21.5s-7.8 16-20.8 21.5L229 96.4c-6 2.6-5.7 12.4 0 14.8l17 7.2c12.9 5.5 20.7 13.5 20.7 21.5s-7.8 16-20.8 21.5l-16.9 7.2c-3.6 1.5-5.6 5.4-4.7 9.2.8 3.8 4.4 6.6 8.2 6.2 42.7-2.5 71.5-24.8 71.5-44m24 156c23.8 0 52.7-29.3 55.8-71.4.3-3.8-2-7.2-5.6-8.3-3.1-1-7.2 0-9.3 3.7l-9.5 17c-7.7 13.7-19.2 21.6-31.5 21.6s-23.8-7.9-31.5-21.6l-9.5-17c-1.8-3.2-5.8-4.7-9.3-3.7-3.6 1.1-5.9 4.6-5.6 8.3 3.3 42.1 32.2 71.4 56 71.4"/><glyph glyph-name="kiss-wink-heart" unicode="" horiz-adv-x="504" d="M304 139.5c0-13-13.4-27.3-35.1-36.4 21.8-8.7 35.2-23 35.2-36 0-19.2-28.7-41.5-71.5-44h-.5c-3.7 0-7 2.6-7.8 6.2-.9 3.8 1.1 7.7 4.7 9.2l17 7.2c12.9 5.5 20.7 13.5 20.7 21.5s-7.8 16-20.8 21.5L229 95.9c-6 2.6-5.7 12.4 0 14.8l17 7.2c12.9 5.5 20.7 13.5 20.7 21.5s-7.8 16-20.8 21.5l-16.9 7.2c-3.6 1.5-5.6 5.4-4.7 9.2.8 3.8 4.4 6.6 8.2 6.2 42.7-2.5 71.5-24.8 71.5-44m70.5 83.5c-14.8 13.2-46.2 13.2-61 0l-9.5-8.5c-2.5-2.3-7.9-4.7-13.7-1.6-4.4 2.4-6.9 7.4-6.1 12.4 3.9 25.2 34.2 42.1 59.8 42.1s55.8-16.9 59.8-42.1c.8-5-1.7-10-6.1-12.4s-9.9-1.7-13.7 1.6zM136 239.5c0 17.7 14.3 32 32 32s32-14.3 32-32-14.3-32-32-32-32 14.3-32 32m365.1-194c9.2-23.9-4.4-49.4-28.5-55.7l-83-21.5c-5.4-1.4-10.9 1.8-12.4 7.1L354.3 58c-6.6 24 8.8 48.6 34 52.6 22 3.5 43.1-11.6 49-33l2.3-8.4 8.4 2.2c21.6 5.6 45.1-5.1 53.1-25.9M334 11.7c17.7-64 10.9-39.5 13.4-46.8C316.9-48.5 283.4-56 248-56 111-56 0 55 0 192s111 248 248 248 248-111 247.9-248c0-31.8-6.2-62.1-17.1-90-6 1.5-12.2 2.8-18.6 2.9-5.6 9.7-13.6 17.5-22.6 23.9 6.7 19.9 10.4 41.1 10.4 63.2 0 110.3-89.7 200-200 200S48 302.3 48 192 137.7-8 248-8c30.8 0 59.9 7.2 86 19.7"/><glyph glyph-name="laugh" unicode="" horiz-adv-x="496" d="M248 440c137 0 248-111 248-248S385-56 248-56 0 55 0 192s111 248 248 248M389.4 50.6c37.8 37.8 58.6 88 58.6 141.4s-20.8 103.6-58.6 141.4S301.4 392 248 392s-103.6-20.8-141.4-58.6C68.8 295.599 48 245.4 48 192S68.8 88.4 106.6 50.6 194.6-8 248-8s103.6 20.8 141.4 58.6M328 224c-17.7 0-32 14.3-32 32s14.3 32 32 32 32-14.3 32-32-14.3-32-32-32m-160 0c-17.7 0-32 14.3-32 32s14.3 32 32 32 32-14.3 32-32-14.3-32-32-32m194.4-64c8.2 0 14.5-7 13.5-15C368.4 85.8 317 40 254.799 40h-13.6C179 40 127.6 85.8 120.1 145c-1 8 5.3 15 13.5 15z"/><glyph glyph-name="laugh-beam" unicode="" horiz-adv-x="496" d="M248 440c137 0 248-111 248-248S385-56 248-56 0 55 0 192s111 248 248 248M389.4 50.6c37.8 37.8 58.6 88 58.6 141.4s-20.8 103.6-58.6 141.4S301.4 392 248 392s-103.6-20.8-141.4-58.6C68.8 295.599 48 245.4 48 192S68.8 88.4 106.6 50.6 194.6-8 248-8s103.6 20.8 141.4 58.6M328 296c23.8 0 52.7-29.3 55.8-71.4.7-8.5-10.8-11.9-14.9-4.5l-9.5 17c-7.7 13.7-19.2 21.6-31.5 21.6s-23.8-7.9-31.5-21.6l-9.5-17c-4.1-7.4-15.6-4.1-14.9 4.5 3.3 42.1 32.2 71.4 56 71.4m-201-75.9c-4.2-7.4-15.7-4-15.1 4.5 3.3 42.1 32.2 71.4 56 71.4s52.7-29.3 56-71.4c.7-8.5-10.8-11.9-14.9-4.5l-9.5 17c-7.7 13.7-19.2 21.6-31.5 21.6s-23.8-7.9-31.5-21.6zM362.4 160c8.2 0 14.5-7 13.5-15C368.4 85.8 317 40 254.799 40h-13.6C179 40 127.6 85.8 120.1 145c-1 8 5.3 15 13.5 15z"/><glyph glyph-name="laugh-squint" unicode="" horiz-adv-x="496" d="M248 440c137 0 248-111 248-248S385-56 248-56 0 55 0 192s111 248 248 248M389.4 50.6c37.8 37.8 58.6 88 58.6 141.4s-20.8 103.6-58.6 141.4S301.4 392 248 392s-103.6-20.8-141.4-58.6C68.8 295.599 48 245.4 48 192S68.8 88.4 106.6 50.6 194.6-8 248-8s103.6 20.8 141.4 58.6M343.6 252l33.6-40.3c8.6-10.4-3.9-24.8-15.4-18l-80 48c-7.8 4.7-7.8 15.9 0 20.6l80 48c11.6 6.8 24-7.7 15.4-18zm-209.4-58.3c-11.6-6.8-24.1 7.6-15.4 18l33.6 40.3-33.6 40.3c-8.6 10.3 3.8 24.9 15.4 18l80-48c7.8-4.7 7.8-15.9 0-20.6zM362.4 160c8.2 0 14.5-7 13.5-15C368.4 85.8 317 40 254.799 40h-13.6C179 40 127.6 85.8 120.1 145c-1 8 5.3 15 13.5 15z"/><glyph glyph-name="laugh-wink" unicode="" horiz-adv-x="496" d="M248 440c137 0 248-111 248-248S385-56 248-56 0 55 0 192s111 248 248 248M389.4 50.6c37.8 37.8 58.6 88 58.6 141.4s-20.8 103.6-58.6 141.4S301.4 392 248 392s-103.6-20.8-141.4-58.6C68.8 295.599 48 245.4 48 192S68.8 88.4 106.6 50.6 194.6-8 248-8s103.6 20.8 141.4 58.6M328 284c25.7 0 55.9-16.9 59.7-42.1 1.8-11.1-11.3-18.2-19.8-10.8l-9.5 8.5c-14.8 13.2-46.2 13.2-61 0l-9.5-8.5c-8.3-7.4-21.5-.4-19.8 10.8 4 25.2 34.2 42.1 59.9 42.1m-160-60c-17.7 0-32 14.3-32 32s14.3 32 32 32 32-14.3 32-32-14.3-32-32-32m194.4-64c8.2 0 14.5-7 13.5-15C368.4 85.8 317 40 254.799 40h-13.6C179 40 127.6 85.8 120.1 145c-1 8 5.3 15 13.5 15z"/><glyph glyph-name="meh-blank" unicode="" horiz-adv-x="496" d="M248 440c137 0 248-111 248-248S385-56 248-56 0 55 0 192s111 248 248 248m0-448c110.3 0 200 89.7 200 200s-89.7 200-200 200S48 302.3 48 192 137.7-8 248-8m-80 280c17.7 0 32-14.3 32-32s-14.3-32-32-32-32 14.3-32 32 14.3 32 32 32m160 0c17.7 0 32-14.3 32-32s-14.3-32-32-32-32 14.3-32 32 14.3 32 32 32"/><glyph glyph-name="meh-rolling-eyes" unicode="" horiz-adv-x="496" d="M248 440c137 0 248-111 248-248S385-56 248-56 0 55 0 192s111 248 248 248m0-448c110.3 0 200 89.7 200 200s-89.7 200-200 200S48 302.3 48 192 137.7-8 248-8m88 304c39.8 0 72-32.2 72-72s-32.2-72-72-72-72 32.2-72 72 32.2 72 72 72m0-112c22.1 0 40 17.9 40 40 0 13.6-7.3 25.1-17.7 32.3 1-2.6 1.7-5.4 1.7-8.3 0-13.3-10.7-24-24-24s-24 10.7-24 24c0 3 .7 5.7 1.7 8.3-10.4-7.2-17.7-18.7-17.7-32.3 0-22.1 17.9-40 40-40m-104 40c0-39.8-32.2-72-72-72s-72 32.2-72 72 32.2 72 72 72 72-32.2 72-72m-112 0c0-22.1 17.9-40 40-40s40 17.9 40 40c0 13.6-7.3 25.1-17.7 32.3 1-2.6 1.7-5.4 1.7-8.3 0-13.3-10.7-24-24-24s-24 10.7-24 24c0 3 .7 5.7 1.7 8.3-10.4-7.2-17.7-18.7-17.7-32.3M312 96c13.2 0 24-10.8 24-24s-10.8-24-24-24H184c-13.2 0-24 10.8-24 24s10.8 24 24 24z"/><glyph glyph-name="sad-cry" unicode="" horiz-adv-x="496" d="M248 440c137 0 248-111 248-248S385-56 248-56 0 55 0 192s111 248 248 248M392 53.6c34.6 35.9 56 84.7 56 138.4 0 110.3-89.7 200-200 200S48 302.3 48 192c0-53.7 21.4-102.4 56-138.4V168c0 13.2 10.8 24 24 24s24-10.8 24-24V16.6C180.5 1 213.2-8 248-8s67.5 9 96 24.6V168c0 13.2 10.8 24 24 24s24-10.8 24-24zM205.8 213.5c-5.8-3.2-11.2-.7-13.7 1.6l-9.5 8.5c-14.8 13.2-46.2 13.2-61 0l-9.5-8.5c-3.8-3.4-9.3-4-13.7-1.6s-6.9 7.4-6.1 12.4c3.9 25.2 34.2 42.1 59.8 42.1s55.8-16.9 59.8-42.1c.8-5-1.7-10-6.1-12.4M344 268c25.7 0 55.9-16.9 59.8-42.1.8-5-1.7-10-6.1-12.4-5.7-3.1-11.2-.6-13.7 1.6l-9.5 8.5c-14.8 13.2-46.2 13.2-61 0l-9.5-8.5c-3.8-3.4-9.2-4-13.7-1.6-4.4 2.4-6.9 7.4-6.1 12.4 3.9 25.2 34.1 42.1 59.8 42.1m-96-92c30.9 0 56-28.7 56-64s-25.1-64-56-64-56 28.7-56 64 25.1 64 56 64"/></font>
</defs>
</svg>
